Не безопасно для работы / Not Safe for Work (Джо Джонстон / Joe Johnston) [2014, США, Триллер, BDRip 720p] VO (datynet) + Sub (Rus, Eng) + Original Eng

Ответить на тему
 
Автор Сообщение

user ®

Стаж: 7 лет 7 месяцев

Сообщений: 20008

Пост Пост: #1 от 20-Май-2014 11:15

[Цитировать]

Не безопасно для работы / Not Safe for Work
Страна: США
Студия: Blumhouse Productions
Жанр: Триллер
Год выпуска: 2014
Продолжительность: 01:14:11
Перевод: Одноголосый закадровый datynet
Cубтитры: русские (kadillak66), английские
Оригинальная аудиодорожка: английский
Режиссер: Джо Джонстон / Joe Johnston
В ролях: Джей Джей Филд, Элоиза Мамфорд, Макс Мингелла, Майкл Глэдис, Молли Хэйгэн, Кристиан Клименсон, Брэндон Кинер, Тим Гриффин, Марина Блэк, Эме Иквуакор
Описание: Обычный офисный работник Том Миллер вынужден вступить в смертельное противостояние с безумным убийцей, оказавшимся в одном с ним здании. Том всеми силами пытается защитить работающих допоздна сотрудников своей юридической фирмы, которые не подозревают о нависшей над ними угрозой, однако вскоре выясняет, что его коллеги скрывают ужасную тайну, из-за которой тысячи жизней подвергаются опасности.
Сэмпл: http://multi-up.com/974862
Тип релиза: BDRip 720p
Контейнер: MKV
Видео: 1280x692p, 23.976 fps, x264 ~6864 kbps
Аудио: Русский AC3 2.0, 44.1 kHz, 192 kbps
Аудио 2: Английский DTS 5.1, 48 kHz, 1509 kbps
Формат субтитров: softsub (SRT)
MediaInfo
Общее
Уникальный идентификатор : 246614820975913632590403188982795980294 (0xB988496EA7D77F34BBF905EB8D5FCE06)
Полное имя : D:\video\Release\Not.Safe.for.Work.2014.BluRay.720p.AC3.DTS.x264.mkv
Формат : Matroska
Версия формата : Version 4 / Version 2
Размер файла : 4,53 Гбайт
Продолжительность : 1 ч. 14 м.
Общий поток : 8739 Кбит/сек
Дата кодирования : UTC 2014-05-19 15:56:46
Программа кодирования : mkvmerge v6.9.1 ('Blue Panther') 64bit built on Apr 18 2014 18:23:38
Библиотека кодирования : libebml v1.3.0 + libmatroska v1.4.1
Видео
Идентификатор : 1
Формат : AVC
Формат/Информация : Advanced Video Codec
Профиль формата : High@L4.1
Параметр CABAC формата : Да
Параметр ReFrames формата : 9 кадров
Идентификатор кодека : V_MPEG4/ISO/AVC
Продолжительность : 1 ч. 14 м.
Битрейт : 6864 Кбит/сек
Ширина : 1280 пикселей
Высота : 692 пикселя
Соотношение сторон : 1,85:1
Режим частоты кадров : Постоянный
Частота кадров : 23,976 кадра/сек
Цветовое пространство : YUV
Субдискретизация насыщенности : 4:2:0
Битовая глубина : 8 бит
Тип развёртки : Прогрессивная
Бит/(Пиксели*Кадры) : 0.323
Размер потока : 3,56 Гбайт (79%)
Библиотека кодирования : x264 core 142 r2389+41 02cb608 tMod [8-bit@all X86_64]
Настройки программы : cabac=1 / ref=9 / deblock=1:-3:-3 / analyse=0x3:0x133 / me=umh / subme=11 / psy=1 / fade_compensate=0.00 / psy_rd=1.05:0.00 / mixed_ref=1 / me_range=32 / chroma_me=1 / trellis=2 / 8x8dct=1 / cqm=0 / deadzone=21,11 / fast_pskip=0 / chroma_qp_offset=-2 / threads=24 / lookahead_threads=5 / sliced_threads=0 / nr=0 / decimate=0 / interlaced=0 / bluray_compat=0 / constrained_intra=0 / fgo=0 / bframes=10 / b_pyramid=2 / b_adapt=2 / b_bias=0 / direct=3 / weightb=1 / open_gop=0 / weightp=2 / keyint=250 / keyint_min=23 / scenecut=40 / intra_refresh=0 / rc_lookahead=80 / rc=crf / mbtree=0 / crf=17.3000 / qcomp=0.70 / qpmin=0:0:0 / qpmax=69:69:69 / qpstep=4 / vbv_maxrate=50000 / vbv_bufsize=62500 / crf_max=0.0 / nal_hrd=none / filler=0 / ip_ratio=1.30 / pb_ratio=1.25 / aq=1:0.85 / aq-sensitivity=10.00 / aq-factor=1.00:1.00:1.00 / aq2=0 / aq3=0
Язык : English
Default : Да
Forced : Нет
Аудио #1
Идентификатор : 2
Формат : AC-3
Формат/Информация : Audio Coding 3
Расширение режима : CM (complete main)
Параметр Endianness формата : Big
Идентификатор кодека : A_AC3
Продолжительность : 1 ч. 14 м.
Вид битрейта : Постоянный
Битрейт : 192 Кбит/сек
Каналы : 2 канала
Расположение каналов : Front: L R
Частота : 44,1 КГц
Битовая глубина : 16 бит
Метод сжатия : С потерями
Размер потока : 102 Мбайт (2%)
Заголовок : datynet
Язык : Russian
Default : Да
Forced : Нет
Аудио #2
Идентификатор : 3
Формат : DTS
Формат/Информация : Digital Theater Systems
Режим : 16
Параметр Endianness формата : Big
Идентификатор кодека : A_DTS
Продолжительность : 1 ч. 14 м.
Вид битрейта : Постоянный
Битрейт : 1509 Кбит/сек
Каналы : 6 каналов
Расположение каналов : Front: L C R, Side: L R, LFE
Частота : 48,0 КГц
Битовая глубина : 24 бит
Метод сжатия : С потерями
Размер потока : 801 Мбайт (17%)
Язык : English
Default : Нет
Forced : Нет
Текст #1
Идентификатор : 4
Формат : UTF-8
Идентификатор кодека : S_TEXT/UTF8
Идентификатор кодека/Информация : UTF-8 Plain Text
Язык : Russian
Default : Нет
Forced : Нет
Текст #2
Идентификатор : 5
Формат : UTF-8
Идентификатор кодека : S_TEXT/UTF8
Идентификатор кодека/Информация : UTF-8 Plain Text
Язык : English
Default : Нет
Forced : Нет
Меню
00:00:00.000 : en:00:00:00.000
00:02:41.620 : en:00:02:41.620
00:04:53.627 : en:00:04:53.627
00:09:28.651 : en:00:09:28.651
00:11:32.609 : en:00:11:32.609
00:14:42.799 : en:00:14:42.799
00:17:25.586 : en:00:17:25.586
00:21:00.551 : en:00:21:00.551
00:24:54.451 : en:00:24:54.451
00:29:20.634 : en:00:29:20.634
00:34:11.049 : en:00:34:11.049
00:38:54.999 : en:00:38:54.999
00:42:18.244 : en:00:42:18.244
00:44:49.729 : en:00:44:49.729
00:49:25.171 : en:00:49:25.171
00:54:02.906 : en:00:54:02.906
00:58:54.114 : en:00:58:54.114
01:03:05.198 : en:01:03:05.198
01:08:11.546 : en:01:08:11.546
01:10:39.819 : en:01:10:39.819
Скриншоты
Скачать

Скачать торрент!

Как скачивать? · Что такое торрент? · Рейтинг и ограничения

Сайт не распространяет и не хранит электронные версии произведений, а лишь предоставляет доступ к создаваемому пользователями каталогу ссылок на торрент-файлы, которые содержат только списки хеш-сумм

[Профиль] [ЛС]
Показать сообщения:    
Ответить на тему

Текущее время: Сегодня 02:17

Часовой пояс: GMT + 4



Вы не можете начинать темы
Вы не можете отвечать на сообщения
Вы не можете редактировать свои сообщения
Вы не можете удалять свои сообщения
Вы не можете голосовать в опросах
Вы не можете прикреплять файлы к сообщениям
Вы не можете скачивать файлы