Горько! (Жора Крыжовников) [2013, комедия, BDRip-AVC]

Ответить на тему
 
Автор Сообщение

user ®

Стаж: 7 лет 7 месяцев

Сообщений: 20008

Пост Пост: #1 от 20-Май-2014 08:05

[Цитировать]

Горько!«Главное не нажраться»- Страна: Россия
Жанр: комедия
Год выпуска: 2013
Продолжительность: 01:40:43-Перевод: Не требуется
Cубтитры: отсутствуют
Навигация по главам: Присутствует - 12 глав-Режиссер: Жора Крыжовников
В ролях: Сергей Светлаков, Юлия Александрова, Егор Корешков, Ян Цапник, Данила Якушев, Юлия Сулес, Елена Валюшкина, Александр Паль, Сергей Лавыгин, Анастасия Добахова, Валентина Мазунина, Владимир Тебенко, Евгений Кушпель, Максим Казаков-Описание
Прогрессивные и талантливые Наташа и Рома мечтают о европейской свадьбе на берегу моря… но у Наташиного отчима заготовлен другой сценарий. Грубый чиновник городской администрации рассматривает торжество как трамплин для собственной карьеры и стремится устроить все «как надо». Молодых ждет незабываемый вечер в ресторане «Золотой» с полным набором занудных обрядов. Не в силах бороться, ребята решают провести свадьбу своей мечты в секрете от консервативных родственников. Но по нелепой случайности оба торжества сливаются воедино.
-
Download sample-Качество видео: BDRip-AVC |
Формат видео: MKV-Видео: 1152x648 (16:9), 24.000 fps, x264 ~4438 kbps avg, 0.248 bit/pixel
Аудио: 48 kHz, AC3 Dolby Digital, 3/2 (L,C,R,l,r) + LFE ch, ~448 kbps | Не требуется-

MediaInfo
General
Unique ID : 228019154262060709911325434078706301292 (0xAB8AE44705BAB069BAA26BD3ED14796C)
Complete name : D:\Фильмы\Рипы\Горько! 2013.BDRip-AVC.eFK.mkv
Format : Matroska
Format version : Version 4 / Version 2
File size : 3.51 GiB
Duration : 1h 40mn
Overall bit rate : 4 989 Kbps
Movie name : Горько! (2013) - Release for
Encoded date : UTC 2014-05-20 01:17:12
Writing application : mkvmerge v6.1.0 ('Old Devil') built on Mar 4 2013 09:10:42
Writing library : libebml v1.3.0 + libmatroska v1.4.0
Attachment : Yes
Video
ID : 1
Format : AVC
Format/Info : Advanced Video Codec
Format profile : High@L4.1
Format settings, CABAC : Yes
Format settings, ReFrames : 15 frames
Codec ID : V_MPEG4/ISO/AVC
Duration : 1h 40mn
Bit rate : 4 442 Kbps
Width : 1 152 pixels
Height : 648 pixels
Display aspect ratio : 16:9
Frame rate mode : Constant
Frame rate : 24.000 fps
Color space : YUV
Chroma subsampling : 4:2:0
Bit depth : 8 bits
Scan type : Progressive
Bits/(Pixel*Frame) : 0.248
Stream size : 3.12 GiB (89%)
Title : eFK
Writing library : x264 core 142 r2431kMod ac76440
Encoding settings : cabac=1 / ref=15 / deblock=1:-3:-3 / analyse=0x3:0x133 / me=umh / subme=11 / psy=1 / fade_compensate=0.00 / psy_rd=1.05:0.00 / mixed_ref=1 / me_range=48 / chroma_me=1 / trellis=2 / 8x8dct=1 / cqm=0 / deadzone=21,11 / fast_pskip=1 / chroma_qp_offset=-2 / threads=8 / lookahead_threads=2 / sliced_threads=0 / nr=0 / decimate=1 / interlaced=0 / bluray_compat=0 / constrained_intra=0 / fgo=0 / bframes=11 / b_pyramid=2 / b_adapt=2 / b_bias=0 / direct=3 / weightb=1 / open_gop=0 / weightp=2 / keyint=250 / keyint_min=23 / scenecut=40 / intra_refresh=0 / rc_lookahead=60 / rc=crf / mbtree=0 / crf=17.6500 / qcomp=0.60 / qpmin=0 / qpmax=69 / qpstep=4 / vbv_maxrate=50000 / vbv_bufsize=62500 / crf_max=0.0 / nal_hrd=none / filler=0 / ip_ratio=1.40 / pb_ratio=1.30 / aq=1:0.80
Default : Yes
Forced : No
Audio
ID : 2
Format : AC-3
Format/Info : Audio Coding 3
Mode extension : CM (complete main)
Format settings, Endianness : Big
Codec ID : A_AC3
Duration : 1h 40mn
Bit rate mode : Constant
Bit rate : 448 Kbps
Channel count : 6 channels
Channel positions : Front: L C R, Side: L R, LFE
Sampling rate : 48.0 KHz
Bit depth : 16 bits
Compression mode : Lossy
Stream size : 323 MiB (9%)
Language : Russian
Default : Yes
Forced : No
Menu
00:00:00.000 : :Chapter 01
00:10:25.125 : :Chapter 02
00:17:56.625 : :Chapter 03
00:28:33.375 : :Chapter 04
00:32:24.916 : :Chapter 05
00:46:12.666 : :Chapter 06
00:53:49.958 : :Chapter 07
01:04:03.541 : :Chapter 08
01:12:21.333 : :Chapter 09
01:23:55.958 : :Chapter 10
01:33:57.958 : :Chapter 11
01:40:43.125 : :Chapter 12
x264 log
x264 [info]: frame I:1002 Avg QP:17.83 size: 91190 PSNR Mean Y:46.36 U:48.67 V:48.48 Avg:46.96 Global:46.47
x264 [info]: frame P:41152 Avg QP:19.52 size: 41465 PSNR Mean Y:45.17 U:47.65 V:47.30 Avg:45.79 Global:45.24
x264 [info]: frame B:102882 Avg QP:22.25 size: 15849 PSNR Mean Y:44.19 U:47.03 V:46.71 Avg:44.88 Global:44.24
x264 [info]: consecutive B-frames: 5.0% 6.1% 16.7% 37.2% 15.3% 14.2% 3.6% 0.4% 0.3% 0.2% 0.1% 1.0%
x264 [info]: mb I I16..4: 5.0% 74.6% 20.4%
x264 [info]: mb P I16..4: 1.9% 22.5% 3.3% P16..4: 26.7% 30.2% 10.1% 1.5% 0.1% skip: 3.8%
x264 [info]: mb B I16..4: 0.5% 3.6% 0.5% B16..8: 32.7% 21.9% 3.9% direct: 7.9% skip:29.0% L0:37.4% L1:42.4% BI:20.2%
x264 [info]: 8x8 transform intra:80.0% inter:70.0%
x264 [info]: direct mvs spatial:100.0% temporal:0.0%
x264 [info]: coded y,uvDC,uvAC intra: 79.8% 84.2% 56.3% inter: 31.1% 33.6% 7.9%
x264 [info]: i16 v,h,dc,p: 20% 15% 4% 60%
x264 [info]: i8 v,h,dc,ddl,ddr,vr,hd,vl,hu: 13% 9% 6% 8% 12% 13% 13% 12% 13%
x264 [info]: i4 v,h,dc,ddl,ddr,vr,hd,vl,hu: 16% 9% 6% 7% 14% 14% 13% 10% 11%
x264 [info]: i8c dc,h,v,p: 34% 24% 22% 20%
x264 [info]: Weighted P-Frames: Y:3.1% UV:2.2%
x264 [info]: ref P L0: 51.1% 15.9% 13.3% 4.5% 3.5% 2.5% 2.1% 1.3% 1.1% 0.9% 0.9% 0.7% 0.7% 0.6% 0.7% 0.2%
x264 [info]: ref B L0: 83.3% 7.3% 3.2% 1.6% 1.1% 0.9% 0.7% 0.4% 0.4% 0.3% 0.3% 0.2% 0.2% 0.1%
x264 [info]: ref B L1: 96.0% 4.0%
x264 [info]: SSIM Mean Y:0.9846984 (18.153db)
x264 [info]: PSNR Mean Y:44.484 U:47.217 V:46.887 Avg:45.150 Global:44.514 kb/s:4438.46
x264 [total]: encoded 145036 frames, 6.30 fps, 4438.46 kb/s
Screenshots Comparison
Source

Encode
Скачать

Скачать торрент!

Как скачивать? · Что такое торрент? · Рейтинг и ограничения

Сайт не распространяет и не хранит электронные версии произведений, а лишь предоставляет доступ к создаваемому пользователями каталогу ссылок на торрент-файлы, которые содержат только списки хеш-сумм

[Профиль] [ЛС]
Показать сообщения:    
Ответить на тему

Текущее время: Сегодня 15:57

Часовой пояс: GMT + 4



Вы не можете начинать темы
Вы не можете отвечать на сообщения
Вы не можете редактировать свои сообщения
Вы не можете удалять свои сообщения
Вы не можете голосовать в опросах
Вы не можете прикреплять файлы к сообщениям
Вы не можете скачивать файлы