Грим Слипер / The Grim Sleeper (Стенли М. Брукс / Stanley M. Brooks) [2014, США, триллер, биография, драма, HDTVRip] VO (Xixidok) + Original Eng

Ответить на тему
 
Автор Сообщение

user ®

Стаж: 7 лет 7 месяцев

Сообщений: 20008

Пост Пост: #1 от 20-Май-2014 08:05

[Цитировать]

Грим Слипер / The Grim Sleeper
Страна: США
Жанр: триллер, биография, драма
Год выпуска: 2014
Продолжительность: 01:23:50
Перевод: Одноголосый закадровый Xixidok
Cубтитры: нет
Оригинальная аудиодорожка: английский
Режиссер: Стенли М. Брукс / Stanley M. Brooks
В ролях: Майкл О'Нил, Эрни Хадсон, Мэси Грей, Джон Кассини Джон Кассини, Вивиана Круиз, Ливи Васкес, Селеста Инселл, Ронда Уиллис, Сьюзан Руттан, Динора Уолкотт
Описание: Исследуя несколько десятков убийств, совершенных в Лос-Анджелесе в 80-е годы, журналист Кристина Пелисек приходит к выводу, что это дело рук одного и того же серийного убийцы. Когда она готовит статью, предрекающую ее звездный час и повышение по службе, обнаруживается что этот маньяк начал убивать вновь спустя 14 лет. Пути Кристины пересекаются с полицией, журналистка ведет параллельное расследование, общаясь с семьями жертв. Фильм основан на реальных событиях.
Сэмпл: http://multi-up.com/974945
Качество видео: HDTVRip
Формат видео: AVI
Видео: MPEG-4 720x400 23.976fps 1 698 Kbps
Аудио: Dolby AC3 48000Hz stereo 192kbps
Аудио 2: Dolby AC3 48000Hz 448 Kbps
MediaInfo
General
Complete name : C:\The.Grim.Sleeper.2014.HDTVRip.1.37GB.avi
Format : AVI
Format/Info : Audio Video Interleave
Format profile : OpenDML
File size : 1.38 GiB
Duration : 1h 23mn
Overall bit rate : 2 356 Kbps
Writing application : Lavf51.12.1
Video
ID : 0
Format : MPEG-4 Visual
Format profile : Simple@L1
Format settings, BVOP : No
Format settings, QPel : No
Format settings, GMC : No warppoints
Format settings, Matrix : Default (H.263)
Codec ID : FMP4
Duration : 1h 23mn
Bit rate : 1 698 Kbps
Width : 720 pixels
Height : 400 pixels
Display aspect ratio : 16:9
Frame rate : 23.976 fps
Color space : YUV
Chroma subsampling : 4:2:0
Bit depth : 8 bits
Scan type : Progressive
Compression mode : Lossy
Bits/(Pixel*Frame) : 0.246
Stream size : 1 018 MiB (72%)
Writing library : Lavc51.40.4
Audio #1
ID : 1
Format : AC-3
Format/Info : Audio Coding 3
Mode extension : CM (complete main)
Format settings, Endianness : Big
Codec ID : 2000
Duration : 1h 23mn
Bit rate mode : Constant
Bit rate : 192 Kbps
Channel count : 2 channels
Channel positions : Front: L R
Sampling rate : 48.0 KHz
Bit depth : 16 bits
Compression mode : Lossy
Stream size : 115 MiB (8%)
Alignment : Aligned on interleaves
Interleave, duration : 32 ms (0.77 video frame)
Interleave, preload duration : 32 ms
Audio #2
ID : 2
Format : AC-3
Format/Info : Audio Coding 3
Mode extension : CM (complete main)
Format settings, Endianness : Big
Codec ID : 2000
Duration : 1h 23mn
Bit rate mode : Constant
Bit rate : 448 Kbps
Channel count : 6 channels
Channel positions : Front: L C R, Side: L R, LFE
Sampling rate : 48.0 KHz
Bit depth : 16 bits
Compression mode : Lossy
Stream size : 269 MiB (19%)
Alignment : Aligned on interleaves
Interleave, duration : 32 ms (0.77 video frame)
Interleave, preload duration : 32 ms
Скриншот c названием фильма Скриншоты
Скачать

Скачать торрент!

Как скачивать? · Что такое торрент? · Рейтинг и ограничения

Сайт не распространяет и не хранит электронные версии произведений, а лишь предоставляет доступ к создаваемому пользователями каталогу ссылок на торрент-файлы, которые содержат только списки хеш-сумм

[Профиль] [ЛС]
Показать сообщения:    
Ответить на тему

Текущее время: Сегодня 02:00

Часовой пояс: GMT + 4



Вы не можете начинать темы
Вы не можете отвечать на сообщения
Вы не можете редактировать свои сообщения
Вы не можете удалять свои сообщения
Вы не можете голосовать в опросах
Вы не можете прикреплять файлы к сообщениям
Вы не можете скачивать файлы