Ребята с улицы / Парни с соседнего двора / Boyz N The Hood (Джон Синглтон / John Singleton) [1991, США, драма, криминал, BDRemux 1080p] MVO + AVO (Гаврилов) + Sub Eng + Original Eng

Ответить на тему
 
Автор Сообщение

user ®

Стаж: 7 лет 7 месяцев

Сообщений: 20008

Пост Пост: #1 от 19-Май-2014 22:30

[Цитировать]

Ребята с улицы / Парни с соседнего двора / Boyz N The Hood
Год выпуска: 1991
Страна: США
Жанр: драма, криминал
Продолжительность: 1:52:07
Перевод: Профессиональный (многоголосый, закадровый)
Перевод: Авторский (одноголосый) Андрей Гаврилов
Субтитры: английские
Режиссер: Джон Синглтон / John Singleton
В ролях: Кьюба Гудинг мл., Hudhail Al-Amir, Ллойд Эйвери II, Анджела Бассетт, Миа Белл, Лекси Бигхем, Кеннет А. Браун, Николь Браун, Ceal, Моррис Честнат, Darneicea Corley, Джон Котрэн мл., Айс Кьюб, Na'Blonka Durden, Сьюзэн Фалкон, Джесси Лоуренс Фергюсон, Тайра Феррелл, Лоренс Фишбёрн, Дедрик Д. Гоберт, Regi Green, Карим Дж. Граймс, Тэмми Хэнсон, Валентино Д. Харрисон, Дези Арнез Хайнс II, Баха Джексон, Ди Ди Джейкобс, Кирк Киндер, Мета Кинг, Реджина Кинг, Leanear Lake, Ниа Лонг, Уитман Майо, Донован МакКрэри, Дон Нельсон, Джимми Ли Ньюман, Малкольм Норрингтон, Алисия Роджерс, Эстер Скотт, Леонетт Скотт, Vonte Sweet, Болдуин С. Сайкес, Рэймонд Д. Тернер, Иоланда Уитэйкер, Джон Синглтон
Описание: Если вы хотите жить, вам не стоит соваться в лос-анджелесский квартал Южный Централ. Это очень опасное место, где обитают сплошь крутые черные парни — такие, например, как Тре и сводные братья Рики и Дагбой. Ежедневно варящиеся в этой адской кухне, заполненной насилием, невежеством и злобой, раю для наркоманов и убийц, они, кажется просто обречены пополнить ряды подонков общества и закончить свои дни с пулей в спине или со шприцом в вене. Но надежда вырваться из этого жуткого мира — и не ногами вперед — не покидает героев. Только вот Южный Централ не очень-то легко отпускает своих жертв…
Качество: BDRemux
Формат: MKV
Видео: MPEG-4 AVC Video 24912 kbps 1080p / 23.976 fps / 16:9 / High Profile 4.1
Аудио: Dolby Digital Audio Russian 2.0 / 48 kHz / 192 kbps [мво]*
Аудио: Dolby Digital Audio Russian 2.0 / 48 kHz / 192 kbps [Гаврилов]
Аудио: DTS-HD Master Audio English 3807 kbps 5.1 / 48 kHz / 3807 kbps / 24-bit (DTS Core: 5.1 / 48 kHz / 1509 kbps / 24-bit)
MI
General
Unique ID : 243181141258286237340920388238363899894 (0xB6F2FBF39C6D8F9D87FCFA264C10B7F6)
Complete name : J:\Boyz.n.the.Hood.1991.1080p.Bluray.AVC.Remux.mkv
Format : Matroska
File size : 22.8 GiB
Duration : 1h 52mn
Overall bit rate : 29.1 Mbps
Movie name : Boyz.n.the.Hood.1991.1080p.Bluray.AVC.Remux
Encoded date : UTC 2011-07-24 00:06:45
Writing application : mkvmerge v4.9.1 ('Ich will') сборка от Jul 11 2011 23:53:15
Writing library : libebml v1.2.1 + libmatroska v1.1.1
Video
ID : 1
Format : AVC
Format/Info : Advanced Video Codec
Format profile : High@L4.1
Format settings, CABAC : Yes
Format settings, ReFrames : 2 frames
Format settings, GOP : M=2, N=11
Codec ID : V_MPEG4/ISO/AVC
Duration : 1h 52mn
Bit rate mode : Variable
Bit rate : 26.6 Mbps
Width : 1 920 pixels
Height : 1 080 pixels
Display aspect ratio : 16:9
Frame rate : 23.976 fps
Color space : YUV
Chroma subsampling : 4:2:0
Bit depth : 8 bits
Scan type : Progressive
Bits/(Pixel*Frame) : 0.535
Stream size : 20.8 GiB (91%)
Title : uralmix
Audio #1
ID : 2
Format : AC-3
Format/Info : Audio Coding 3
Mode extension : CM (complete main)
Codec ID : A_AC3
Duration : 1h 52mn
Bit rate mode : Constant
Bit rate : 192 Kbps
Channel(s) : 2 channels
Channel positions : Front: L R
Sampling rate : 48.0 KHz
Bit depth : 16 bits
Compression mode : Lossy
Stream size : 154 MiB (1%)
Title : ТНТ
Language : Russian
Audio #2
ID : 3
Format : AC-3
Format/Info : Audio Coding 3
Mode extension : CM (complete main)
Codec ID : A_AC3
Duration : 1h 52mn
Bit rate mode : Constant
Bit rate : 192 Kbps
Channel(s) : 2 channels
Channel positions : Front: L R
Sampling rate : 48.0 KHz
Bit depth : 16 bits
Compression mode : Lossy
Stream size : 154 MiB (1%)
Title : авторский - Андрей Гаврилов
Language : Russian
Audio #3
ID : 4
Format : DTS
Format/Info : Digital Theater Systems
Format profile : MA / Core
Codec ID : A_DTS
Duration : 1h 52mn
Bit rate mode : Variable
Bit rate : 1 561 Kbps / 1 510 Kbps
Channel(s) : 6 channels
Channel positions : Front: L C R, Side: L R, LFE
Sampling rate : 48.0 KHz
Bit depth : 24 bits
Compression mode : Lossless / Lossy
Language : English
Text
ID : 5
Format : UTF-8
Codec ID : S_TEXT/UTF8
Codec ID/Info : UTF-8 Plain Text
Language : English
Menu
00:00:00.000 : en:00:00:00.000
00:06:55.957 : en:00:06:55.957
00:14:06.846 : en:00:14:06.846
00:20:13.838 : en:00:20:13.838
00:28:59.071 : en:00:28:59.071
00:37:52.395 : en:00:37:52.395
00:41:19.769 : en:00:41:19.769
00:49:49.153 : en:00:49:49.153
00:55:08.347 : en:00:55:08.347
01:01:43.491 : en:01:01:43.491
01:11:42.632 : en:01:11:42.632
01:17:50.499 : en:01:17:50.499
01:25:58.320 : en:01:25:58.320
01:32:34.090 : en:01:32:34.090
01:36:02.966 : en:01:36:02.966
01:42:23.804 : en:01:42:23.804
Скриншоты
Скачать

Скачать торрент!

Как скачивать? · Что такое торрент? · Рейтинг и ограничения

Сайт не распространяет и не хранит электронные версии произведений, а лишь предоставляет доступ к создаваемому пользователями каталогу ссылок на торрент-файлы, которые содержат только списки хеш-сумм

[Профиль] [ЛС]
Показать сообщения:    
Ответить на тему

Текущее время: Сегодня 06:09

Часовой пояс: GMT + 4



Вы не можете начинать темы
Вы не можете отвечать на сообщения
Вы не можете редактировать свои сообщения
Вы не можете удалять свои сообщения
Вы не можете голосовать в опросах
Вы не можете прикреплять файлы к сообщениям
Вы не можете скачивать файлы