Ведьмы - ниндзя 2 / Ninja Vixens: Crimson Blades (Хитоши Тагучи / Hitoshi Taguchi) [2000, Япония, боевые искусства, эротика, DVDRip] VO (Виктор Береговых)

Ответить на тему
 
Автор Сообщение

user ®

Стаж: 11 лет

Сообщений: 15151

Пост Пост: #1 от 19-Май-2014 19:20

[Цитировать]

Ведьмы - ниндзя 2 / Ninja Vixens: Crimson Blades
Страна: Япония
Жанр: боевые искусства, эротика
Год выпуска: 2000
Продолжительность: 01:06:33
Перевод: Одноголосый закадровый (Виктор Береговых)
Cубтитры: нет
Режиссер: Хитоши Тагучи / Hitoshi Taguchi
В ролях: Юкаши Отаки, Майко Савада, Рейка, Мудо Ода
Описание: Молодая девушка - ниндзя Синобу в бегах.Два года назад ее обвинили в убийстве,которого она не совершала и Синобу пришлось покинуть клан. Девушка скрывается в одной из деревень и помогает местному главе решать
вопросы с помощью своего искусства ниндзя.Вскоре ее вычисляют люди родного клана и отправляют к ней убийц,один из которых Дракон,бывший возлюбленный Синобу...(В.Береговых)
Сэмпл: http://www.sendspace.com/file/y99dlg
Качество видео: DVDRip
Формат видео: AVI
Видео: XviD, 720x400 (16:9), 29.970 fps, 2937 kbps avg, 0.340 bit/pixel
Аудио: AC3, 48.0 KHz, 192 Kbps, 2 channels
Релиз форума Tavernaclub
MediaInfo
General
Complete name : C:\Ведьмы - ниндзя 2\Ведьмы - ниндзя 2.avi
Format : AVI
Format/Info : Audio Video Interleave
File size : 1.46 GiB
Duration : 1h 6mn
Overall bit rate : 3 136 Kbps
Writing application : VirtualDubMod 1.5.4.1 (build 2178/release)
Writing library : VirtualDubMod build 2178/release
Video
ID : 0
Format : MPEG-4 Visual
Format profile : AdvancedSimple@L5
Format settings, BVOP : Yes
Format settings, QPel : No
Format settings, GMC : No warppoints
Format settings, Matrix : Custom
Codec ID : XVID
Codec ID/Hint : XviD
Duration : 1h 6mn
Bit rate : 2 937 Kbps
Width : 720 pixels
Height : 400 pixels
Display aspect ratio : 16:9
Frame rate : 29.970 fps
Resolution : 24 bits
Colorimetry : 4:2:0
Scan type : Progressive
Bits/(Pixel*Frame) : 0.340
Stream size : 1.37 GiB (94%)
Writing library : XviD 1.2.0.dev47 (UTC 2006-11-01)
Audio
ID : 1
Format : AC-3
Format/Info : Audio Coding 3
Codec ID : 2000
Duration : 1h 6mn
Bit rate mode : Constant
Bit rate : 192 Kbps
Channel(s) : 2 channels
Channel positions : L R
Sampling rate : 48.0 KHz
Stream size : 91.4 MiB (6%)
Alignment : Split accross interleaves
Interleave, duration : 96 ms (2.88 video frames)
Interleave, preload duration : 96 ms
Language : Russian
Скриншот c названием фильма Скриншоты
Скачать

Скачать торрент! Ведьмы - ниндзя 2 / Ninja Vixens: Crimson Blades (Хитоши Тагучи / Hitoshi Taguchi) [2000, Япония, боевые искусства, эротика, DVDRip] VO (Виктор Береговых)

Как скачивать? · Что такое торрент? · Рейтинг и ограничения

Сайт не распространяет и не хранит электронные версии произведений, а лишь предоставляет доступ к создаваемому пользователями каталогу ссылок на торрент-файлы, которые содержат только списки хеш-сумм

[Профиль] [ЛС]
Показать сообщения:    
Ответить на тему

Текущее время: Сегодня 07:47

Часовой пояс: GMT + 4



Вы не можете начинать темы
Вы не можете отвечать на сообщения
Вы не можете редактировать свои сообщения
Вы не можете удалять свои сообщения
Вы не можете голосовать в опросах
Вы не можете прикреплять файлы к сообщениям
Вы не можете скачивать файлы