Любовь в космосе / Love in Space / Quan qiu re lian (Винг Шья / Wing Shya, Тони Чан / Tony Chan) [2011, Гонконг, Китай, США, мелодрама, комедия, DVDRip] MVO (AB Video) + Original Chin

Ответить на тему
 
Автор Сообщение

user ®

Стаж: 11 лет

Сообщений: 15151

Пост Пост: #1 от 19-Май-2014 16:10

[Цитировать]

Любовь в космосе / Love in Space / Quan qiu re lian
Страна: Гонконг, Китай, США
Студия: Films & Casting Temple Pvt. Ltd. Sydney, Fox International Productions (FIP), Fox International Productions (Greater China)
Жанр: мелодрама, комедия
Год выпуска: 2011
Продолжительность: 01:43:59
Перевод: Профессиональный (многоголосый закадровый) AB Video
Cубтитры: нет
Оригинальная аудиодорожка: английский (отдельным файлом)
Режиссер: Винг Шья / Wing Shya, Тони Чан / Tony Chan
В ролях:
Aaron Kwok / Аарон Квок в роли Майкла
Rene Liu / Рене Лю в роли Розы
Eason Chan / Изон Чан в роли Джонни
Kwai Lun-Mei / Квай Лунь-Мей в роли Лили
Angelababy / Анджелабейби в роли Пион
Jing Bo-Ran / Цзин Боран в роли Вэнь Фэна
Chapman To / Чапман То в роли доктора
Описание: Три сестры Лили, Роза и Пион успешны во всем, кроме любви, что невероятно огорчает их мать. Однако девушки не сидят сложа руки и пытаются найти свои вторые половинки в самых неожиданных местах: в Пекине, Сиднее и даже на Луне...
II Сэмпл II IMDB II
Качество видео: DVDRip
Формат видео: AVI
Видео: Xvid 720x304 (2.35:1) 23.9760fps Bit rate 1807Kbps b/p 0.344
Аудио 1: AC3 48.0KHz 2ch 192 Kbps rus
Аудио 2: AC3 48.0KHz 6ch 448 Kbps chin (отдельным файлом)
MediaInfo
Общее
Полное имя : E:\torrent\Love.In.Space.2011.DVDRip\Love.In.Space.2011.DVDRip.avi
Формат : AVI
Формат/Информация : Audio Video Interleave
Размер файла : 1,46 Гбайт
Продолжительность : 1 ч. 43 м.
Общий поток : 2009 Кбит/сек
Программа кодирования : VirtualDubMod 1.5.10.2 (build 2540/release)
Библиотека кодирования : VirtualDubMod build 2540/release
Видео
Идентификатор : 0
Формат : MPEG-4 Visual
Профиль формата : Advanced Simple@L5
Параметр BVOP формата : 2
Параметр QPel формата : Нет
Параметр GMC формата : Без точки перехода
Параметр матрицы формата : Default (H.263)
Идентификатор кодека : XVID
Идентификатор кодека/Подсказка : XviD
Продолжительность : 1 ч. 43 м.
Битрейт : 1807 Кбит/сек
Ширина : 720 пикселей
Высота : 304 пикселя
Соотношение сторон : 2,35:1
Частота кадров : 23,976 кадра/сек
Цветовое пространство : YUV
Субдискретизация насыщенности : 4:2:0
Битовая глубина : 8 бит
Тип развёртки : Прогрессивная
Метод сжатия : С потерями
Бит/(Пиксели*Кадры) : 0.344
Размер потока : 1,31 Гбайт (90%)
Библиотека кодирования : XviD 1.2.1 (UTC 2008-12-04)
Аудио
Идентификатор : 1
Формат : AC-3
Формат/Информация : Audio Coding 3
Расширение режима : CM (complete main)
Параметр Endianness формата : Big
Идентификатор кодека : 2000
Продолжительность : 1 ч. 43 м.
Вид битрейта : Постоянный
Битрейт : 192 Кбит/сек
Каналы : 2 канала
Расположение каналов : Front: L R
Частота : 48,0 КГц
Битовая глубина : 16 бит
Метод сжатия : С потерями
Размер потока : 143 Мбайт (10%)
Выравнивание : Разделение по промежуткам
Продолжительность промежутка : 42 мс. (1,00 видеокадр)
Время предзагрузки промежутка : 500 мс.
Скриншот c названием фильма Скриншоты
Скачать

Скачать торрент! Любовь в космосе / Love in Space / Quan qiu re lian (Винг Шья / Wing Shya, Тони Чан / Tony Chan) [2011, Гонконг, Китай, США, мелодрама, комедия, DVDRip] MVO (AB Video) + Original Chin

Как скачивать? · Что такое торрент? · Рейтинг и ограничения

Сайт не распространяет и не хранит электронные версии произведений, а лишь предоставляет доступ к создаваемому пользователями каталогу ссылок на торрент-файлы, которые содержат только списки хеш-сумм

[Профиль] [ЛС]
Показать сообщения:    
Ответить на тему

Текущее время: Сегодня 15:54

Часовой пояс: GMT + 4



Вы не можете начинать темы
Вы не можете отвечать на сообщения
Вы не можете редактировать свои сообщения
Вы не можете удалять свои сообщения
Вы не можете голосовать в опросах
Вы не можете прикреплять файлы к сообщениям
Вы не можете скачивать файлы