Вор / Thief (Майкл Манн / Michael Mann) [1981, США, боевик, триллер, драма, криминал, BDRip 720p] VO (Гаевский) + DVO + 2х AVO (Гаврилов, Михалёв) + Sub Rus, Eng + Original Eng

Ответить на тему
 
Автор Сообщение

user ®

Стаж: 7 лет 7 месяцев

Сообщений: 20008

Пост Пост: #1 от 19-Май-2014 10:20

[Цитировать]

Вор / Thief
Страна: США
Жанр: боевик, триллер, драма, криминал
Год выпуска: 1981
Продолжительность: 02:04:41
Перевод: Одноголосый закадровый Евгений Гаевский
Перевод 2: Профессиональный (двухголосый закадровый)
Перевод 3: Авторский (одноголосый закадровый) Андрей Гаврилов
Перевод 4: Авторский (одноголосый закадровый) Алексей Михалёв
Cубтитры: русские, английские
Оригинальная аудиодорожка: английский
Режиссер: Майкл Манн / Michael Mann
В ролях: Джеймс Каан, Тьюзди Уэлд, Уилли Нельсон, Джеймс Белуши, Роберт Проски, Том Сигнорелли, Деннис Фарина, Ник Никеас, В.Р. Браун, Норм Тобин
Описание: Фрэнк — эксперт по вскрытию сейфов, профессионал высшей пробы, и работы для него всегда хватает. Но он уже побывал за решеткой, и возвращаться туда не собирается. Нужен всего один, но верный взлом.
И тут дразнящая мечта о будущем заставляет его потерять осторожность: поддавшись искушению, матерый волк-одиночка соглашается поработать на крупного мафиози! Капкан захлопнулся, разовых контрактов с мафией не бывает. Лучший друг Фрэнка убит, любимая женщина — в руках бандитов, а сам он становится их собственностью…
Дополнительная информация: заказ перевода Евгения Гаевского - Ольга Левицкая, работа по сведению дорожки с переводом Евгения Гаевского - Perevodman. В переводе Евгения Гаевского присутствует ненормативная лексика.
Сэмпл: http://multi-up.com/974414
Тип релиза: BDRip 720p
Контейнер: MKV
Видео: 13,6 Мбит / сек, 1280*692 ( 1,85:1 ), в 23, 976 кадра / сек
Аудио: Russian: DTS 1509 Кбит / сек, 48,0 КГц, 24 бит, 6 каналов ( Гаевский )
Аудио 2: Russian: AC-3 192 Кбит / сек, 48,0 КГц, 16 бит, 2 канала ( ДВО )
Аудио 3: Russian: AC-3 192 Кбит / сек, 48,0 КГц, 16 бит, 2 канала ( Гаврилов )
Аудио 4: Russian: AC-3 192 Кбит / сек, 48,0 КГц, 16 бит, 2 канала ( Михалёв )
Аудио 5: English: AC-3 640 Кбит / сек, 48,0 КГц, 16 бит, 6 каналов
Формат субтитров: softsub (SRT)
MediaInfo
Общее
Уникальный идентификатор : 193107696201291834552884885634931580832 (0x914730807CE88E1CBD5C3FD850D15FA0)
Полное имя : F:\КИНО\Thief.1981.720p.BluRay. DD5.1.mkv
Формат : Matroska
Версия формата : Version 4 / Version 2
Размер файла : 14,5 Гбайт
Продолжительность : 2 ч. 4 м.
Общий поток : 16,6 Мбит/сек
Название фильма : -=MediaClub-kaspr=-
Дата кодирования : UTC 2014-05-17 18:34:59
Программа кодирования : mkvmerge v6.8.0 ('Theme for Great Cities') 64bit built on Mar 2 2014 21:34:26
Библиотека кодирования : libebml v1.3.0 + libmatroska v1.4.1
Видео
Идентификатор : 1
Формат : AVC
Формат/Информация : Advanced Video Codec
Профиль формата : High@L4.1
Параметр CABAC формата : Да
Параметр ReFrames формата : 9 кадров
Идентификатор кодека : V_MPEG4/ISO/AVC
Продолжительность : 2 ч. 4 м.
Битрейт : 13,6 Мбит/сек
Ширина : 1280 пикселей
Высота : 692 пикселя
Соотношение сторон : 1,85:1
Режим частоты кадров : Постоянный
Частота кадров : 23,976 кадра/сек
Цветовое пространство : YUV
Субдискретизация насыщенности : 4:2:0
Битовая глубина : 8 бит
Тип развёртки : Прогрессивная
Бит/(Пиксели*Кадры) : 0.639
Размер потока : 11,8 Гбайт (82%)
Библиотека кодирования : x264 core 133 r2334 a3ac64b
Настройки программы : cabac=1 / ref=9 / deblock=1:-3:-3 / analyse=0x3:0x133 / me=umh / subme=10 / psy=1 / psy_rd=1.10:0.00 / mixed_ref=1 / me_range=24 / chroma_me=1 / trellis=2 / 8x8dct=1 / cqm=0 / deadzone=21,11 / fast_pskip=0 / chroma_qp_offset=-2 / threads=12 / lookahead_threads=2 / sliced_threads=0 / nr=0 / decimate=1 / interlaced=0 / bluray_compat=0 / constrained_intra=0 / bframes=8 / b_pyramid=2 / b_adapt=2 / b_bias=0 / direct=3 / weightb=1 / open_gop=0 / weightp=2 / keyint=250 / keyint_min=23 / scenecut=40 / intra_refresh=0 / rc=crf / mbtree=0 / crf=16.9 / qcomp=0.60 / qpmin=0 / qpmax=69 / qpstep=4 / ip_ratio=1.40 / pb_ratio=1.20 / aq=1:0.75
Язык : English
Default : Да
Forced : Нет
Аудио #1
Идентификатор : 2
Формат : DTS
Формат/Информация : Digital Theater Systems
Режим : 16
Параметр Endianness формата : Big
Идентификатор кодека : A_DTS
Продолжительность : 2 ч. 4 м.
Вид битрейта : Постоянный
Битрейт : 1509 Кбит/сек
Каналы : 6 каналов
Расположение каналов : Front: L C R, Side: L R, LFE
Частота : 48,0 КГц
Битовая глубина : 24 бит
Метод сжатия : С потерями
Размер потока : 1,31 Гбайт (9%)
Заголовок : Гаевский
Язык : Russian
Default : Да
Forced : Да
Аудио #2
Идентификатор : 3
Формат : AC-3
Формат/Информация : Audio Coding 3
Расширение режима : CM (complete main)
Параметр Endianness формата : Big
Идентификатор кодека : A_AC3
Продолжительность : 2 ч. 4 м.
Вид битрейта : Постоянный
Битрейт : 192 Кбит/сек
Каналы : 2 канала
Расположение каналов : Front: L R
Частота : 48,0 КГц
Битовая глубина : 16 бит
Метод сжатия : С потерями
Размер потока : 171 Мбайт (1%)
Заголовок : MVO
Язык : Russian
Default : Нет
Forced : Нет
Аудио #3
Идентификатор : 4
Формат : AC-3
Формат/Информация : Audio Coding 3
Расширение режима : CM (complete main)
Параметр Endianness формата : Big
Идентификатор кодека : A_AC3
Продолжительность : 2 ч. 4 м.
Вид битрейта : Постоянный
Битрейт : 192 Кбит/сек
Каналы : 2 канала
Расположение каналов : Front: L R
Частота : 48,0 КГц
Битовая глубина : 16 бит
Метод сжатия : С потерями
Размер потока : 171 Мбайт (1%)
Заголовок : Гаврилов
Язык : Russian
Default : Нет
Forced : Нет
Аудио #4
Идентификатор : 5
Формат : AC-3
Формат/Информация : Audio Coding 3
Расширение режима : CM (complete main)
Параметр Endianness формата : Big
Идентификатор кодека : A_AC3
Продолжительность : 2 ч. 4 м.
Вид битрейта : Постоянный
Битрейт : 192 Кбит/сек
Каналы : 2 канала
Расположение каналов : Front: L R
Частота : 48,0 КГц
Битовая глубина : 16 бит
Метод сжатия : С потерями
Размер потока : 171 Мбайт (1%)
Заголовок : Михалев
Язык : Russian
Default : Нет
Forced : Нет
Аудио #5
Идентификатор : 6
Формат : AC-3
Формат/Информация : Audio Coding 3
Расширение режима : CM (complete main)
Параметр Endianness формата : Big
Идентификатор кодека : A_AC3
Продолжительность : 2 ч. 4 м.
Вид битрейта : Постоянный
Битрейт : 640 Кбит/сек
Каналы : 6 каналов
Расположение каналов : Front: L C R, Side: L R, LFE
Частота : 48,0 КГц
Битовая глубина : 16 бит
Метод сжатия : С потерями
Размер потока : 571 Мбайт (4%)
Язык : English
Default : Нет
Forced : Нет
Текст #1
Идентификатор : 7
Формат : UTF-8
Идентификатор кодека : S_TEXT/UTF8
Идентификатор кодека/Информация : UTF-8 Plain Text
Default : Нет
Forced : Нет
Текст #2
Идентификатор : 8
Формат : UTF-8
Идентификатор кодека : S_TEXT/UTF8
Идентификатор кодека/Информация : UTF-8 Plain Text
Заголовок : SDH
Язык : English
Default : Да
Forced : Нет
Меню #1
00:00:00.000 : en:Logo/Opening Credits
00:11:54.422 : en:The Heist
00:13:08.413 : en:The Dual Life
00:15:16.707 : en:Letter from Okla
00:16:51.010 : en:L & A Plating
00:18:10.423 : en:Okla's Home at the Penn
00:22:22.800 : en:Leo Makes an Offer
00:25:23.605 : en:Two Hours Late
00:30:10.267 : en:"I'm a Thief!"
00:35:08.773 : en:2 Coffees, 1 Romance
00:45:31.062 : en:The First Assignment
00:47:29.555 : en:Suburbia/Sam
00:47:55.247 : en:Haggling Habeas Corpus
00:51:55.612 : en:Alarm Talk
00:53:40.175 : en:Parenting Criteria
00:55:53.809 : en:Relating to Urizzi
00:58:56.700 : en:Home Infestation
01:02:42.592 : en:Bugged/It'll Be A Boy
01:06:47.962 : en:Losing Okla
01:09:28.706 : en:"That's A Nice Baby"
01:11:43.549 : en:Preparations/We Are On
01:14:32.551 : en:Police Brutality
01:18:25.951 : en:Into The Shaft/Wired
01:21:43.857 : en:"Mexico"/Burning In
01:33:31.940 : en:San Diego Reverie
01:36:58.688 : en:"It Is Over"
01:40:04.582 : en:Car Lot Showdown
01:42:45.076 : en:Instructions For Jessica
01:44:57.082 : en:Disassembling A Life
01:50:04.473 : en:Shooting For Leo
01:53:42.691 : en:Suburban Shootout
Меню #2
00:00:00.054 : en:00:00:00.054
Скриншоты
Скачать

Скачать торрент!

Как скачивать? · Что такое торрент? · Рейтинг и ограничения

Сайт не распространяет и не хранит электронные версии произведений, а лишь предоставляет доступ к создаваемому пользователями каталогу ссылок на торрент-файлы, которые содержат только списки хеш-сумм

[Профиль] [ЛС]
Показать сообщения:    
Ответить на тему

Текущее время: Сегодня 13:41

Часовой пояс: GMT + 4



Вы не можете начинать темы
Вы не можете отвечать на сообщения
Вы не можете редактировать свои сообщения
Вы не можете удалять свои сообщения
Вы не можете голосовать в опросах
Вы не можете прикреплять файлы к сообщениям
Вы не можете скачивать файлы