Испытательный срок (Игорь Нурисламов) [2014, Романтическая комедия, SATRip]

Ответить на тему
 
Автор Сообщение

user ®

Стаж: 7 лет 7 месяцев

Сообщений: 20008

Пост Пост: #1 от 19-Май-2014 10:20

[Цитировать]

Испытательный срок
Жанр: Романтическая комедия
Год выпуска: 2014
Продолжительность: 01:35:37
Режиссёр: Игорь Нурисламов
В ролях: Михаил Тарабукин, Поля Полякова, Роман Притула, Андрей Аксёнов, Артём Анчуков, Елена Мартыненко, Дмитрий Комков, Даниил Комков, Алексей Фокин, Егор Бакулин, Геша Меньшиков, Полина Красавина, Оксана Скакун, Алёна Кучкова, Сергей Уманов, Дмитрий Макеев, Виктор Выбриенко, Полина Воронова
Описание: Матери-одиночке позарез надо найти работу. Дайте ей только шанс и она перевернет мир! Но - ветрянка у двух ее близнецов рушит все планы. Новая работа могла бы разом решить ее проблемы. Но как быть, если начальство не переносит слов «больничный-дети» и ни за что не возьмет на работу мать двоих малышей? «Багаж» решено скрыть, а достоинства приукрасить. Ей бы только продержаться испытательный срок, который совпал с 21 днем карантина. На помощь отчаянной мамочке приходит сосед, инфантильный и безответственный разгильдяй.
Сэмпл: http://multi-up.com/974551
Качество видео: SATRip
Формат видео: AVI
Видео: DivX, 1896 Кбит/с, 720x400, 25,000 кадров/сек
Аудио: MP3, 2 ch, 128 Кбит/с, 48,0 КГц
MediaInfo
I:\Испытательный срок 21 день\Ispytatelnyj.srok.SATRip.avi
General
Complete name : I:\Испытательный срок 21 день\Ispytatelnyj.srok.SATRip.avi
Format : AVI
Format/Info : Audio Video Interleave
File size : 1.36 GiB
Duration : 1h 35mn
Overall bit rate : 2 034 Kbps
Writing library : VirtualDub build 35491/release
Video #0
ID : 0
Format : MPEG-4 Visual
Format settings, BVOP : 1
Format settings, QPel : No
Format settings, GMC : No warppoints
Format settings, Matrix : Default (H.263)
Muxing mode : Packed bitstream
Codec ID : DX50
Codec ID/Hint : DivX 5
Duration : 1h 35mn
Bit rate : 1 896 Kbps
Width : 720 pixels
Height : 400 pixels
Display aspect ratio : 16:9
Frame rate : 25.000 fps
Color space : YUV
Chroma subsampling : 4:2:0
Bit depth : 8 bits
Scan type : Progressive
Compression mode : Lossy
Bits/(Pixel*Frame) : 0.263
Stream size : 1.27 GiB (93%)
Writing library : DivX 6.8.5 (UTC 2009-08-20)
Audio #1
ID : 1
Format : MPEG Audio
Format version : Version 1
Format profile : Layer 3
Mode : Joint stereo
Mode extension : MS Stereo
Codec ID : 55
Codec ID/Hint : MP3
Duration : 1h 35mn
Bit rate mode : Constant
Bit rate : 128 Kbps
Channel count : 2 channels
Sampling rate : 48.0 KHz
Compression mode : Lossy
Stream size : 87.5 MiB (6%)
Alignment : Split accross interleaves
Interleave, duration : 40 ms (1.00 video frame)
Interleave, preload duration : 500 ms
Скриншот c названием фильма Скриншоты
Скачать

Скачать торрент!

Как скачивать? · Что такое торрент? · Рейтинг и ограничения

Сайт не распространяет и не хранит электронные версии произведений, а лишь предоставляет доступ к создаваемому пользователями каталогу ссылок на торрент-файлы, которые содержат только списки хеш-сумм

[Профиль] [ЛС]
Показать сообщения:    
Ответить на тему

Текущее время: Сегодня 02:17

Часовой пояс: GMT + 4



Вы не можете начинать темы
Вы не можете отвечать на сообщения
Вы не можете редактировать свои сообщения
Вы не можете удалять свои сообщения
Вы не можете голосовать в опросах
Вы не можете прикреплять файлы к сообщениям
Вы не можете скачивать файлы