Спасти зеленую планету! / Save the green planet! / Jigureul jikyeora! (Чжун-Хван Чан / Joon-Hwan Jang) [2003, Корея Южная, фантастика, фэнтези, триллер, драма, комедия, DVDRip] MVO (GREEN TEA)

Ответить на тему
 
Автор Сообщение

user ®

Стаж: 11 лет

Сообщений: 15151

Пост Пост: #1 от 19-Май-2014 00:50

[Цитировать]

Спасти зеленую планету! / Save the green planet! / Jigureul jikyeora!
Страна: Корея Южная
Жанр: фантастика, фэнтези, триллер, драма, комедия
Год выпуска: 2003
Продолжительность: 01:56:40
Перевод: Любительский (многоголосый закадровый) GREEN TEA
Cубтитры: нет
Оригинальная аудиодорожка: нет
Режиссер: Чжун-Хван Чан / Joon-Hwan Jang
В ролях: Син Ха Гюн, Пэк Юн Сик, Чжон-мин Хванг, Ли Чжэ Ён, Чжу-хён Ли, Чу-бон Джи, Дон-хён Ким, Ким Рве Ха, Му-хён Ли
Описание: Бён Гу — обычный корейский юноша. Он трогательно ухаживает за своей матерью, лежащей в коме последние 5 лет, и старается доискаться до причины ее болезни. В этих поисках он неожиданно решает, что раскрыл заговор инопланетян, направленный на истребление жизни на Земле.
За считанные часы до лунного затмения, после которого события примут необратимый характер, он должен встретиться с принцем Андромеды, добравшись до него через его земных агентов, во главе которых — зловещий Кан Ман-Шик, легко переносящий удар током в 300 вольт и другие невзгоды.
Но спастись злодею не удастся! Бён Гу мечтает изобрести надежное средство против пришельцев… Черная комедия, фантастика, триллер?… Так ли уж безумен герой, решивший спасти планету от козней инопланетян?
Сэмпл: http://multi-up.com/974643
Формат видео: AVI
Видео: XviD, 757 kbps, 624 х 352 pixels, 23.976 fps
Аудио: MP3, 128 Kbps, 2 channels, 48.0 KHz

MediaInfo
General
Complete name : D:\Save.the.green.planet.2003.DVDRip.745mb.avi
Format : AVI
Format/Info : Audio Video Interleave
File size : 747 MiB
Duration : 1h 56mn
Overall bit rate : 894 Kbps
Writing application : VirtualDubMod 1.5.10.3 | www.virtualdub-fr.org || (build 2550/release)
Writing library : VirtualDubMod build 2550/release
Video
ID : 0
Format : MPEG-4 Visual
Format profile : Advanced Simple@L5
Format settings, BVOP : Yes
Format settings, QPel : No
Format settings, GMC : No warppoints
Format settings, Matrix : Custom
Codec ID : XVID
Codec ID/Hint : XviD
Duration : 1h 56mn
Bit rate : 757 Kbps
Width : 624 pixels
Height : 352 pixels
Display aspect ratio : 16:9
Frame rate : 23.976 fps
Color space : YUV
Chroma subsampling : 4:2:0
Bit depth : 8 bits
Scan type : Progressive
Compression mode : Lossy
Bits/(Pixel*Frame) : 0.144
Stream size : 632 MiB (85%)
Writing library : XviD 73
Audio
ID : 1
Format : MPEG Audio
Format version : Version 1
Format profile : Layer 3
Codec ID : 55
Codec ID/Hint : MP3
Duration : 1h 56mn
Bit rate mode : Constant
Bit rate : 128 Kbps
Channel(s) : 2 channels
Sampling rate : 48.0 KHz
Compression mode : Lossy
Stream size : 107 MiB (14%)
Alignment : Aligned on interleaves
Interleave, duration : 42 ms (1.00 video frame)
Interleave, preload duration : 504 ms
Writing library : LAME3.99r
Encoding settings : -m s -V 4 -q 2 -lowpass 17 -b 128
Скриншот c названием фильма Скриншоты
Скачать

Скачать торрент! Спасти зеленую планету! / Save the green planet! / Jigureul jikyeora! (Чжун-Хван Чан / Joon-Hwan Jang) [2003, Корея Южная, фантастика, фэнтези, триллер, драма, комедия, DVDRip] MVO (GREEN TEA)

Как скачивать? · Что такое торрент? · Рейтинг и ограничения

Сайт не распространяет и не хранит электронные версии произведений, а лишь предоставляет доступ к создаваемому пользователями каталогу ссылок на торрент-файлы, которые содержат только списки хеш-сумм

[Профиль] [ЛС]
Показать сообщения:    
Ответить на тему

Текущее время: Сегодня 11:26

Часовой пояс: GMT + 4



Вы не можете начинать темы
Вы не можете отвечать на сообщения
Вы не можете редактировать свои сообщения
Вы не можете удалять свои сообщения
Вы не можете голосовать в опросах
Вы не можете прикреплять файлы к сообщениям
Вы не можете скачивать файлы