Этот неловкий момент / That Awkward Moment (Том Гормикэн / Tom Gormican) [2014, США, мелодрама, комедия, BDRip 720p] Dub + Original Eng + sub (eng)

Ответить на тему
 
Автор Сообщение

user ®

Стаж: 7 лет 7 месяцев

Сообщений: 20008

Пост Пост: #1 от 19-Май-2014 00:50

[Цитировать]

Этот неловкий момент / That Awkward Moment«Когда ты понимаешь: добиться многого - значит мыслить по-крупному»- -Страна: США
Студия: Aversano Films, Ninjas Runnin' Wild Productions, Treehouse Pictures, Virgin Produced, What If It Barks Films
Жанр: мелодрама, комедия
Год выпуска: 2014
Продолжительность: 01:34:31-Перевод: Профессиональный (дублированный) [Лицензия] R5
Cубтитры: английские
Оригинальная аудиодорожка: английские-Режиссер: Том Гормикэн / Tom Gormican
В ролях: Зак Эфрон, Майлз Теллер, Майкл Б. Джордан, Имоджен Путс, Маккензи Дэвис, Джессика Лукас, Эддисон Тимлин, Джош Пэйс, Эвелина Обоза, Карен Людвиг...-Описание: Джейсон, Дэниел и Майкл — типичные обитатели Манхеттена, красивые остроумные парни. После того, как одного из них бросает подружка, они клянутся больше никогда не заводить с девушками серьезных отношений. Но очень скоро, после кучи «неловких моментов», они встречают настоящую любовь. И как теперь быть с дружеской сделкой?-Семпл | IMDb | Кинопоиск-Релиз: -Качество видео: BDRip 720p by TayTO
Формат: MKV
Источник: That Awkward Moment 2014 1080p Blu-ray AVC DTS-HD MA 5.1-HDAccess
Видео: 1280x534 at 23.976 fps, x264@L4.1, ~5500 kbps avg
Аудио#1: Russian: 48 kHz, AC3, 3/2 (L,C,R,l,r) + LFE ch, ~384.00 kbps avg |Дубляж, R5|
Аудио#2: English: 48 kHz, AC3, 3/2 (L,C,R,l,r) + LFE ch, ~640.00 kbps avg
Субтитры: English (Full, SDH)-Цитата:
• Сохранены оригинальные чаптеры как на Blu-ray.

-
Скриншоты
-
MediaInfo
Format                                   : Matroska
Format version                           : Version 4 / Version 2
File size                                : 4.31 GiB
Duration                                 : 1h 34mn
Overall bit rate                         : 6 526 Kbps
Encoded date                             : UTC 2014-05-14 12:33:27
Writing application                      : mkvmerge v6.9.1 ('Blue Panther') 64bit built on Apr 18 2014 18:23:38
Writing library                          : libebml v1.3.0 + libmatroska v1.4.1
Video
ID                                       : 1
Format                                   : AVC
Format/Info                              : Advanced Video Codec
Format profile                           : High@L4.1
Format settings, CABAC                   : Yes
Format settings, ReFrames                : 12 frames
Codec ID                                 : V_MPEG4/ISO/AVC
Duration                                 : 1h 34mn
Bit rate                                 : 5 500 Kbps
Width                                    : 1 280 pixels
Height                                   : 534 pixels
Display aspect ratio                     : 2.40:1
Frame rate mode                          : Constant
Frame rate                               : 23.976 fps
Color space                              : YUV
Chroma subsampling                       : 4:2:0
Bit depth                                : 8 bits
Scan type                                : Progressive
Bits/(Pixel*Frame)                       : 0.336
Stream size                              : 3.55 GiB (82%)
Writing library                          : x264 core 142 r2431kMod ac76440
Encoding settings                        : cabac=1 / ref=12 / deblock=1:-3:-3 / analyse=0x3:0x133 / me=tesa / subme=11 / psy=1 / fade_compensate=0.00 / psy_rd=1.00:0.00 / mixed_ref=1 / me_range=24 / chroma_me=1 / trellis=2 / 8x8dct=1 / cqm=0 / deadzone=21,11 / fast_pskip=0 / chroma_qp_offset=-2 / threads=12 / lookahead_threads=2 / sliced_threads=0 / nr=0 / decimate=1 / interlaced=0 / bluray_compat=0 / constrained_intra=0 / fgo=0 / bframes=9 / b_pyramid=2 / b_adapt=2 / b_bias=0 / direct=3 / weightb=1 / open_gop=0 / weightp=2 / keyint=250 / keyint_min=23 / scenecut=40 / intra_refresh=0 / rc=2pass / mbtree=0 / bitrate=5500 / ratetol=1.0 / qcomp=0.65 / qpmin=0 / qpmax=69 / qpstep=4 / cplxblur=20.0 / qblur=0.5 / ip_ratio=1.40 / pb_ratio=1.30 / aq=1:0.80
Default                                  : No
Forced                                   : No
Matrix coefficients                      : BT.709
Audio #1
ID                                       : 2
Format                                   : AC-3
Format/Info                              : Audio Coding 3
Mode extension                           : CM (complete main)
Format settings, Endianness              : Big
Codec ID                                 : A_AC3
Duration                                 : 1h 34mn
Bit rate mode                            : Constant
Bit rate                                 : 384 Kbps
Channel(s)                               : 6 channels
Channel positions                        : Front: L C R, Side: L R, LFE
Sampling rate                            : 48.0 KHz
Bit depth                                : 16 bits
Compression mode                         : Lossy
Stream size                              : 260 MiB (6%)
Language                                 : Russian
Default                                  : Yes
Forced                                   : No
Audio #2
ID                                       : 3
Format                                   : AC-3
Format/Info                              : Audio Coding 3
Mode extension                           : CM (complete main)
Format settings, Endianness              : Big
Codec ID                                 : A_AC3
Duration                                 : 1h 34mn
Bit rate mode                            : Constant
Bit rate                                 : 640 Kbps
Channel(s)                               : 6 channels
Channel positions                        : Front: L C R, Side: L R, LFE
Sampling rate                            : 48.0 KHz
Bit depth                                : 16 bits
Compression mode                         : Lossy
Stream size                              : 433 MiB (10%)
Language                                 : English
Default                                  : No
Forced                                   : No
Text #1
ID                                       : 4
Format                                   : UTF-8
Codec ID                                 : S_TEXT/UTF8
Codec ID/Info                            : UTF-8 Plain Text
Language                                 : English
Default                                  : No
Forced                                   : No
Text #2
ID                                       : 5
Format                                   : UTF-8
Codec ID                                 : S_TEXT/UTF8
Codec ID/Info                            : UTF-8 Plain Text
Title                                    : SDH
Language                                 : English
Default                                  : No
Forced                                   : No
Menu
00:00:00.000                             : en:00:00:00.000
00:05:35.252                             : en:00:05:35.252
00:11:40.658                             : en:00:11:40.658
00:17:15.534                             : en:00:17:15.534
00:23:20.649                             : en:00:23:20.649
00:30:05.637                             : en:00:30:05.637
00:36:32.607                             : en:00:36:32.607
00:42:17.577                             : en:00:42:17.577
00:49:23.127                             : en:00:49:23.127
00:55:55.936                             : en:00:55:55.936
01:02:36.211                             : en:01:02:36.211
01:06:40.079                             : en:01:06:40.079
01:09:56.734                             : en:01:09:56.734
01:16:02.850                             : en:01:16:02.850
01:22:59.349                             : en:01:22:59.349
01:28:29.304                             : en:01:28:29.304
Скачать

Скачать торрент!

Как скачивать? · Что такое торрент? · Рейтинг и ограничения

Сайт не распространяет и не хранит электронные версии произведений, а лишь предоставляет доступ к создаваемому пользователями каталогу ссылок на торрент-файлы, которые содержат только списки хеш-сумм

[Профиль] [ЛС]
Показать сообщения:    
Ответить на тему

Текущее время: Сегодня 13:41

Часовой пояс: GMT + 4



Вы не можете начинать темы
Вы не можете отвечать на сообщения
Вы не можете редактировать свои сообщения
Вы не можете удалять свои сообщения
Вы не можете голосовать в опросах
Вы не можете прикреплять файлы к сообщениям
Вы не можете скачивать файлы