Мне хватит миллиона / Открытый чек / Blank Check (Руперт Вейнрайт / Rupert Wainwright) [1994, США, комедия, семейный, WEB-DL 720p] MVO (СТС) + DVO (Stalk, weldika) + AVO (Гаврилов) + Sub Rus, Eng + Original Eng

Ответить на тему
 
Автор Сообщение

user ®

Стаж: 7 лет 7 месяцев

Сообщений: 20008

Пост Пост: #1 от 19-Май-2014 00:50

[Цитировать]

Мне хватит миллиона / Открытый чек / Blank Check
Страна: США
Студия: Walt Disney Pictures
Жанр: комедия, семейный
Год выпуска: 1994
Продолжительность: 01:33:14
Перевод: Профессиональный (многоголосый закадровый) СТС
Перевод 2: Любительский (двухголосый закадровый) Stalk, weldika
Перевод 3: Авторский (одноголосый закадровый) А. Гаврилов
Cубтитры: русские, английские
Оригинальная аудиодорожка: английский
Режиссер: Руперт Вейнрайт / Rupert Wainwright
В ролях: Брайан Бонсалл, Карен Даффи, Джеймс Ребхорн, Джейн Эткинсон, Майкл Фаустино, Крис Деметрал, Мигель Феррер, Майкл Лернер, Тоун Лок, Рик Дукомман
Описание: В руки к юному Престону случайно попадает незаполненный банковский чек. Решив, что ему вполне хватит миллиона долларов, он, не задумываясь, вписывает в него скромную сумму в миллион долларов, одним росчерком пера меняя свою жизнь.
Новоиспеченный миллионер сразу начинает воплощать самые заветные мечты: собственный дом, роскошный лимузин и лучшие в мире игрушки. Но когда ФБР и владельцы чека наперегонки бросаются в погоню, он понимает, что за миллион долларов можно приобрести еще больше проблем.
Доп. информация: За Дорожку СТС спасибо __СЕРЁГА__.
За Дорожку с Авторским переводом Гаврилова спасибо xxxcity.
За Дорожку Stalk, weldika спасибо РГ "Fenix". За перевод субтитров на русский язык спасибо Stalk.
Sample
Тип релиза: WEB-DL 720p CtrlHD
Контейнер: MKV
Видео: MPEG4 AVC Video, H264, 16:9, 1280x718, 23,976 fps, 3979 kbps
Аудио: Russian (AC3, 2 ch, 192 kbps, 16 bits, 48.0 KHz) - СТС
Аудио 2: Russian (AC3, 2 ch, 192 kbps, 16 bits, 48.0 KHz) - Stalk, weldika
Аудио 3: Russian (AC3, 2 ch, 192 kbps, 16 bits, 48.0 KHz) - А. Гаврилов
Аудио 4: English (AC3, 2 ch, 192 kbps, 16 bits, 48.0 KHz) - оригинал
Формат субтитров: softsub (SRT)
MediaInfo
General
Unique ID : 234835218937741932282115370290660823842 (0xB0AB9E363959BC8E8E7A41689820D322)
Complete name : E:\1\Blank.Check.1994.Web-DL.720p.CtrlHD.mkv
Format : Matroska
Format version : Version 4 / Version 2
File size : 3.15 GiB
Duration : 1h 33mn
Overall bit rate : 4 843 Kbps
Encoded date : UTC 2014-05-17 17:09:30
Writing application : mkvmerge v6.1.0 ('Old Devil') built on Mar 2 2013 14:32:37
Writing library : libebml v1.3.0 + libmatroska v1.4.0
Video
ID : 1
Format : AVC
Format/Info : Advanced Video Codec
Format profile : High@L3.1
Format settings, CABAC : No
Format settings, ReFrames : 2 frames
Format settings, GOP : N=1
Codec ID : V_MPEG4/ISO/AVC
Duration : 1h 33mn
Bit rate : 3 979 Kbps
Width : 1 280 pixels
Height : 718 pixels
Display aspect ratio : 16:9
Frame rate mode : Constant
Frame rate : 23.976 fps
Color space : YUV
Chroma subsampling : 4:2:0
Bit depth : 8 bits
Scan type : Progressive
Bits/(Pixel*Frame) : 0.181
Stream size : 2.59 GiB (82%)
Language : English
Default : Yes
Forced : No
Color primaries : BT.709
Transfer characteristics : BT.709
Matrix coefficients : BT.709
Audio #1
ID : 2
Format : AC-3
Format/Info : Audio Coding 3
Mode extension : CM (complete main)
Format settings, Endianness : Big
Codec ID : A_AC3
Duration : 1h 33mn
Bit rate mode : Constant
Bit rate : 192 Kbps
Channel count : 2 channels
Channel positions : Front: L R
Sampling rate : 48.0 KHz
Bit depth : 16 bits
Compression mode : Lossy
Stream size : 128 MiB (4%)
Title : СТС
Language : Russian
Default : Yes
Forced : No
Audio #2
ID : 3
Format : AC-3
Format/Info : Audio Coding 3
Mode extension : CM (complete main)
Format settings, Endianness : Big
Codec ID : A_AC3
Duration : 1h 33mn
Bit rate mode : Constant
Bit rate : 192 Kbps
Channel count : 2 channels
Channel positions : Front: L R
Sampling rate : 48.0 KHz
Bit depth : 16 bits
Compression mode : Lossy
Stream size : 128 MiB (4%)
Title : Stalk, weldika
Language : Russian
Default : No
Forced : No
Audio #3
ID : 4
Format : AC-3
Format/Info : Audio Coding 3
Mode extension : CM (complete main)
Format settings, Endianness : Big
Codec ID : A_AC3
Duration : 1h 33mn
Bit rate mode : Constant
Bit rate : 192 Kbps
Channel count : 2 channels
Channel positions : Front: L R
Sampling rate : 48.0 KHz
Bit depth : 16 bits
Compression mode : Lossy
Stream size : 128 MiB (4%)
Title : А.Гаврилов
Language : Russian
Default : No
Forced : No
Audio #4
ID : 5
Format : AC-3
Format/Info : Audio Coding 3
Mode extension : CM (complete main)
Format settings, Endianness : Big
Codec ID : A_AC3
Duration : 1h 33mn
Bit rate mode : Constant
Bit rate : 192 Kbps
Channel count : 2 channels
Channel positions : Front: L R
Sampling rate : 48.0 KHz
Bit depth : 16 bits
Compression mode : Lossy
Stream size : 128 MiB (4%)
Language : English
Default : No
Forced : No
Text #1
ID : 6
Format : UTF-8
Codec ID : S_TEXT/UTF8
Codec ID/Info : UTF-8 Plain Text
Language : Russian
Default : No
Forced : No
Text #2
ID : 7
Format : UTF-8
Codec ID : S_TEXT/UTF8
Codec ID/Info : UTF-8 Plain Text
Language : English
Default : No
Forced : No
Menu
00:00:00.000 : en:Opening Credits
00:10:08.000 : en:Laundering The Loot
00:14:00.000 : en:Parking Lot Incident
00:17:01.000 : en:Preston Fills In The Amount
00:18:58.000 : en:Check Cashing Time
00:25:43.000 : en:MacIntosh Buys A House
00:32:21.000 : en:Shopping Spree
00:36:10.000 : en:Movin' In
00:40:39.000 : en:A Visit From Shay
00:46:59.000 : en:First Date
00:51:22.000 : en:Foiled Again
00:58:18.000 : en:Park Chase
01:05:17.000 : en:The Big Birthday Bash
01:10:36.000 : en:Waters Talks To MacIntosh
01:14:19.000 : en:The Party's Over
01:18:43.000 : en:The Kid Fights Back
01:24:00.000 : en:Arresting Mr. MacIntosh
01:26:04.000 : en:In Only Six Years!
01:30:01.000 : en:End Credits
Скриншоты
Скачать

Скачать торрент!

Как скачивать? · Что такое торрент? · Рейтинг и ограничения

Сайт не распространяет и не хранит электронные версии произведений, а лишь предоставляет доступ к создаваемому пользователями каталогу ссылок на торрент-файлы, которые содержат только списки хеш-сумм

[Профиль] [ЛС]
Показать сообщения:    
Ответить на тему

Текущее время: Сегодня 11:42

Часовой пояс: GMT + 4



Вы не можете начинать темы
Вы не можете отвечать на сообщения
Вы не можете редактировать свои сообщения
Вы не можете удалять свои сообщения
Вы не можете голосовать в опросах
Вы не можете прикреплять файлы к сообщениям
Вы не можете скачивать файлы