Игры киллеров / Оружие / Assassination Games / Weapon (Эрни Барбараш / Ernie Barbarash) [2011, США, Румыния, боевик, триллер, BDRip 1080p] Dub + VO (VANO) + Ukr + Original (Eng) + Sub (Eng)

Ответить на тему
 
Автор Сообщение

user ®

Стаж: 7 лет 7 месяцев

Сообщений: 20008

Пост Пост: #1 от 19-Май-2014 00:50

[Цитировать]

Игры киллеров / Оружие / Assassination Games / Weapon Страна: США, Румыния
Студия: Mediapro Studios, Motion Picture Corporation of America (MPCA), ....
Жанр: боевик, триллер
Год выпуска: 2011
Продолжительность: 01:39:51
Перевод:
  • Профессиональный (дублированный) R5
  • Одноголосый закадровый VANO
    Cубтитры: английские, английские (форсированные на другие языки)
    Оригинальная аудиодорожка: английский
    Режиссер: Эрни Барбараш / Ernie Barbarash
    В ролях: Жан-Клод Ван Дамм, Скотт Эдкинс, Айван Кэй, Валентин Теодосию, Элин Пэнк, Кевин Чэпмен, Сербан Целеа, Майкл Хиггс, Кристофер Ван Варенберг, Мария Каран
    Описание:
    Роланд Флинт и Винсент Брэйзил — отъявленные наёмники, мастера восточных единоборств и гуру военного искусства. Винсент специализируется на холодном оружии, в то время, как Роланд является первоклассным стрелком. Они не знакомы друг другу, но вскоре им предстоит создать непростой альянс и колоритный тандем.
    В один прекрасный день двум профессионалам поручили задание — любой ценой уничтожить наркокартель, заполонившую всю округу «товаром», а вместе с тем — убрать её всесильного босса, покрываемого управлением по борьбе с наркотиками.
    Однако, за простой, с первого взгляда, миссией кроется предательство, подстава и тёмные проделки влиятельных лиц и воротил преступного мира, объявивших охоту на самих наёмников. Теперь крутым ребятам придётся на собственной шкуре ощутить, что значит быть жертвой и постоянно оглядываться назад. Война начинается и кровопролитной битвы не избежать…
    - ||-Тип релиза: BDRip 1080p (рип от LoVeRoSe@DON)

    Контейнер: MKV
    Видео: AVC (x264), 1920x1080 (16:9) at 23,976 fps, 9849 Кbps, 0.198 bpp
    Аудио 1: AC3; 448 Kbps; CBR; 6 ch; 48 khz | Дубляж |
    Аудио 2: AC3; 448 Kbps; CBR; 6 ch; 48 khz | Украинский, MVO от 1+1 |
    Аудио 3: DTS; 1536 Kbps; CBR; 6 ch; 48 khz | VO - VANO |
    Аудио 4: DTS; 1536 Kbps; CBR; 6 ch; 48 khz | Английский |
    Формат субтитров: softsub (SRT)
    Скриншоты || x264 Info || MediaInfo || Notes
    Notes:
    -
    Русский дубляж сделан отвратно: часть звуков что есть в оригинале просто нету
    Аудио дорожка №2 взята с релиза от hurtom, thx: Technomate, urij546724, JACKUS
    Дорожка №3 получена наложением выделенного голоса на DTS HDMA - выделял с ts'ки
    Русские субтитры гуляющие по интернету - откровенная бредятина с кучей синтаксических ошибок
    -
    Jimmy Bones писал(а):
Сравнение подгонки дубляжа с "соседями" : #1, #2, #3, ....
Теоретически есть ещё чистый голос на одноголоску от den904
но чего-то поиск не дал результатов...
MediaInfo
Общее
Уникальный идентификатор                 : 219432920306528991973738511479760791358 (0xA5153E425F6E5B5CBEFF7A629224A73E)
Полное имя                               : Игры киллеров.2011.D.1080p.BluRay.x264-DON.mkv
Формат                                   : Matroska
Версия формата                           : Version 4 / Version 2
Размер файла                             : 9,80 Гбайт
Продолжительность                        : 1 ч. 39 м.
Общий поток                              : 14,0 Мбит/сек
Название фильма                          : Assassination Games [1080p] [2011] Dub
Дата кодирования                         : UTC 2014-05-18 09:13:38
Программа кодирования                    : mkvmerge v6.9.1 ('Blue Panther') 32bit built on Apr 18 2014 18:15:44
Библиотека кодирования                   : libebml v1.3.0 + libmatroska v1.4.1
Видео
Идентификатор                            : 1
Формат                                   : AVC
Формат/Информация                        : Advanced Video Codec
Профиль формата                          : High@L4.1
Параметр CABAC формата                   : Да
Параметр ReFrames формата                : 4 кадра
Идентификатор кодека                     : V_MPEG4/ISO/AVC
Продолжительность                        : 1 ч. 39 м.
Битрейт                                  : 9849 Кбит/сек
Ширина                                   : 1920 пикселей
Высота                                   : 1080 пикселей
Соотношение сторон                       : 16:9
Режим частоты кадров                     : Постоянный
Частота кадров                           : 23,976 кадра/сек
Цветовое пространство                    : YUV
Субдискретизация насыщенности            : 4:2:0
Битовая глубина                          : 8 бит
Тип развёртки                            : Прогрессивная
Бит/(Пиксели*Кадры)                      : 0.198
Размер потока                            : 6,87 Гбайт (70%)
Заголовок                                : profile.php?mode=viewprofile&u=22488948
Библиотека кодирования                   : x264 core 140 r2377kMod 1ca7bb9
Настройки программы                      : cabac=1 / ref=4 / deblock=1:-3:-3 / analyse=0x3:0x133 / me=tesa / subme=10 / psy=1 / fade_compensate=0.00 / psy_rd=0.90:0.00 / mixed_ref=1 / me_range=24 / chroma_me=1 / trellis=2 / 8x8dct=1 / cqm=0 / deadzone=21,11 / fast_pskip=0 / chroma_qp_offset=-2 / threads=12 / lookahead_threads=2 / sliced_threads=0 / nr=0 / decimate=1 / interlaced=0 / bluray_compat=0 / constrained_intra=0 / fgo=0 / bframes=9 / b_pyramid=2 / b_adapt=2 / b_bias=0 / direct=3 / weightb=1 / open_gop=0 / weightp=2 / keyint=241 / keyint_min=23 / scenecut=40 / intra_refresh=0 / rc_lookahead=60 / rc=crf / mbtree=0 / crf=17.5000 / qcomp=0.60 / qpmin=0 / qpmax=69 / qpstep=4 / vbv_maxrate=50000 / vbv_bufsize=62500 / crf_max=0.0 / nal_hrd=none / filler=0 / ip_ratio=1.40 / pb_ratio=1.30 / aq=3:0.90 / zones=137761,143663,q=26
Язык                                     : English
Default                                  : Да
Forced                                   : Нет
Аудио #1
Идентификатор                            : 2
Формат                                   : AC-3
Формат/Информация                        : Audio Coding 3
Расширение режима                        : CM (complete main)
Параметр Endianness формата              : Big
Идентификатор кодека                     : A_AC3
Продолжительность                        : 1 ч. 39 м.
Вид битрейта                             : Постоянный
Битрейт                                  : 448 Кбит/сек
Каналы                                   : 6 каналов
Расположение каналов                     : Front: L C R, Side: L R, LFE
Частота                                  : 48,0 КГц
Битовая глубина                          : 16 бит
Метод сжатия                             : С потерями
Размер потока                            : 320 Мбайт (3%)
Заголовок                                : Dub
Язык                                     : Russian
Default                                  : Да
Forced                                   : Нет
Аудио #2
Идентификатор                            : 3
Формат                                   : AC-3
Формат/Информация                        : Audio Coding 3
Расширение режима                        : CM (complete main)
Параметр Endianness формата              : Big
Идентификатор кодека                     : A_AC3
Продолжительность                        : 1 ч. 39 м.
Вид битрейта                             : Постоянный
Битрейт                                  : 448 Кбит/сек
Каналы                                   : 6 каналов
Расположение каналов                     : Front: L C R, Side: L R, LFE
Частота                                  : 48,0 КГц
Битовая глубина                          : 16 бит
Метод сжатия                             : С потерями
Размер потока                            : 320 Мбайт (3%)
Заголовок                                : MVO, 1+1
Язык                                     : Ukrainian
Default                                  : Нет
Forced                                   : Нет
Аудио #3
Идентификатор                            : 4
Формат                                   : DTS
Формат/Информация                        : Digital Theater Systems
Режим                                    : 16
Параметр Endianness формата              : Big
Идентификатор кодека                     : A_DTS
Продолжительность                        : 1 ч. 39 м.
Вид битрейта                             : Постоянный
Битрейт                                  : 1509 Кбит/сек
Каналы                                   : 6 каналов
Расположение каналов                     : Front: L C R, Side: L R, LFE
Частота                                  : 48,0 КГц
Битовая глубина                          : 24 бит
Метод сжатия                             : С потерями
Размер потока                            : 1,05 Гбайт (11%)
Заголовок                                : VO [VANO]
Язык                                     : Russian
Default                                  : Нет
Forced                                   : Нет
Аудио #4
Идентификатор                            : 5
Формат                                   : DTS
Формат/Информация                        : Digital Theater Systems
Режим                                    : 16
Параметр Endianness формата              : Big
Идентификатор кодека                     : A_DTS
Продолжительность                        : 1 ч. 39 м.
Вид битрейта                             : Постоянный
Битрейт                                  : 1509 Кбит/сек
Каналы                                   : 6 каналов
Расположение каналов                     : Front: L C R, Side: L R, LFE
Частота                                  : 48,0 КГц
Битовая глубина                          : 24 бит
Метод сжатия                             : С потерями
Размер потока                            : 1,05 Гбайт (11%)
Язык                                     : English
Default                                  : Нет
Forced                                   : Нет
Текст #1
Идентификатор                            : 6
Формат                                   : UTF-8
Идентификатор кодека                     : S_TEXT/UTF8
Идентификатор кодека/Информация          : UTF-8 Plain Text
Заголовок                                : forced for russian parts
Язык                                     : English
Default                                  : Да
Forced                                   : Нет
Текст #2
Идентификатор                            : 7
Формат                                   : UTF-8
Идентификатор кодека                     : S_TEXT/UTF8
Идентификатор кодека/Информация          : UTF-8 Plain Text
Язык                                     : English
Default                                  : Нет
Forced                                   : Нет
Меню
00:00:00.000                             : en:
00:07:57.977                             : en:
00:11:13.714                             : en:
00:17:42.519                             : en:
00:21:57.649                             : en:
00:30:29.953                             : en:
00:37:04.597                             : en:
00:41:24.732                             : en:
00:46:33.457                             : en:
00:51:43.850                             : en:
00:58:31.591                             : en:
01:07:04.770                             : en:
01:11:32.538                             : en:
01:17:46.119                             : en:
01:23:49.607                             : en:
01:32:09.106                             : en:
Source vs Encode
Source......vs.....DON

x264 Infox264 [info]: frame I:1310 Avg QP:13.26 size:231265
x264 [info]: frame P:36619 Avg QP:15.36 size: 97561
x264 [info]: frame B:105735 Avg QP:18.04 size: 35071
x264 [info]: consecutive B-frames: 3.2% 7.8% 5.3% 45.0% 10.2% 13.0% 6.7% 8.1% 0.5% 0.1%
Скачать

Скачать торрент!

Как скачивать? · Что такое торрент? · Рейтинг и ограничения

Сайт не распространяет и не хранит электронные версии произведений, а лишь предоставляет доступ к создаваемому пользователями каталогу ссылок на торрент-файлы, которые содержат только списки хеш-сумм

[Профиль] [ЛС]
Показать сообщения:    
Ответить на тему

Текущее время: Сегодня 15:55

Часовой пояс: GMT + 4



Вы не можете начинать темы
Вы не можете отвечать на сообщения
Вы не можете редактировать свои сообщения
Вы не можете удалять свои сообщения
Вы не можете голосовать в опросах
Вы не можете прикреплять файлы к сообщениям
Вы не можете скачивать файлы