Ямада: Самурай Нагасама / Ямада: Самурай из Аютии / Yamada: The Samurai of Ayothaya / Samurai Ayothaya (Ноппор Щатин / Nopporn Watin) [2010, Таиланд, боевик, драма, история, BDRip 720p] MVO (Первый ТВЧ) + Sub Rus, Eng + Original Thai

Ответить на тему
 
Автор Сообщение

user ®

Стаж: 7 лет 7 месяцев

Сообщений: 20008

Пост Пост: #1 от 19-Май-2014 00:50

[Цитировать]

Ямада: Самурай Нагасама / Ямада: Самурай из Аютии / Yamada: The Samurai of Ayothaya
Страна: Таиланд
Жанр: боевик, драма, история
Год выпуска: 2010
Продолжительность: 01:41:29
Перевод: Профессиональный (многоголосый закадровый) Первый ТВЧ
Cубтитры: русские, английские (srt)
Оригинальная аудиодорожка: тайский
Режиссер: Ноппор Щатин / Nopporn Watin
В ролях: Секи Осеки, Каноккорн Джайчын, Сорапонг Чатри, Винай Краибутр, Тханавут Кетсаро, Буакав Банчамек, Сомджит Джонгджохор, Бин Бунлуерит
Описание: После предательского ранения самурай Ямада попадает в мирный посёлок в Аютии. Сразу после выздоровления Ямада пытается начать новую жизнь и стремится проявить себя среди местных жителей, но убеждается в том, что его японское боевое искусство не сравнится с восемью оружиями Муай Тай — кулаками, ногами, локтями и коленями. Поэтому он решает начать обучение под руководством мастера-монаха.
Сэмпл: http://multi-up.com/974620
Тип релиза: BDRip 720p рип от CHD
Контейнер: MKV
Видео: MPEG-4 AVC, High@L4.1, 5553 Kbps, 1280 х 692 pixels, 23.976 fps
Аудио 1: AC3, 192 Kbps, 2 channels, Front: L R, 48.0 KHz, 16 bits | RU
Аудио 2: DTS, 1509 Kbps, 6 channels, Front: L C R, Side: L R, LFE, 48.0 KHz, 16 bits | THAI

MediaInfo
General
Unique ID : 243596412044596711228691846894893560689 (0xB742F661D3513C7AB5483FCDF0867371)
Complete name : D:\kirovtorrent\The.Samurai.of.Ayothaya.2010.BluRay.720p.DTS.x264-CHD.mkv
Format : Matroska
Format version : Version 4 / Version 2
File size : 5.14 GiB
Duration : 1h 41mn
Overall bit rate : 7 255 Kbps
Encoded date : UTC 2014-05-18 13:03:21
Writing application : mkvmerge v6.8.0 ('Theme for Great Cities') 64bit built on Mar 2 2014 21:34:26
Writing library : libebml v1.3.0 + libmatroska v1.4.1
Video
ID : 1
Format : AVC
Format/Info : Advanced Video Codec
Format profile : High@L4.1
Format settings, CABAC : Yes
Format settings, ReFrames : 9 frames
Codec ID : V_MPEG4/ISO/AVC
Duration : 1h 41mn
Bit rate : 5 553 Kbps
Width : 1 280 pixels
Height : 692 pixels
Display aspect ratio : 1.85:1
Frame rate mode : Constant
Frame rate : 23.976 fps
Color space : YUV
Chroma subsampling : 4:2:0
Bit depth : 8 bits
Scan type : Progressive
Bits/(Pixel*Frame) : 0.261
Stream size : 3.83 GiB (75%)
Title : The.Samurai.of.Ayothaya.2010.BluRay.720p.DTS.x264-CHD & WSmit60
Writing library : x264 core 123 r2184+681M 5d72658
Encoding settings : cabac=1 / ref=9 / deblock=1:-3:-3 / analyse=0x3:0x113 / me=umh / subme=10 / psy=1 / fade_compensate=0.00 / psy_rd=1.05:0.10 / mixed_ref=1 / me_range=32 / chroma_me=1 / trellis=2 / 8x8dct=1 / cqm=0 / deadzone=21,11 / fast_pskip=0 / chroma_qp_offset=-2 / threads=12 / sliced_threads=0 / nr=0 / decimate=1 / interlaced=0 / bluray_compat=0 / constrained_intra=0 / fgo=0 / bframes=6 / b_pyramid=2 / b_adapt=2 / b_bias=0 / direct=3 / weightb=1 / open_gop=0 / weightp=2 / keyint=250 / keyint_min=23 / scenecut=40 / intra_refresh=0 / rc_lookahead=40 / rc=2pass / mbtree=0 / bitrate=5553 / ratetol=1.0 / qcomp=0.70 / qpmin=0 / qpmax=69 / qpstep=4 / cplxblur=20.0 / qblur=0.5 / vbv_maxrate=20000 / vbv_bufsize=30000 / nal_hrd=none / ip_ratio=1.40 / pb_ratio=1.30 / aq=2:1.00
Language : Thai
Default : No
Forced : No
Color primaries : BT.709
Transfer characteristics : BT.709
Matrix coefficients : BT.709
Audio #1
ID : 2
Format : AC-3
Format/Info : Audio Coding 3
Mode extension : CM (complete main)
Format settings, Endianness : Big
Codec ID : A_AC3
Duration : 1h 41mn
Bit rate mode : Constant
Bit rate : 192 Kbps
Channel(s) : 2 channels
Channel positions : Front: L R
Sampling rate : 48.0 KHz
Bit depth : 16 bits
Compression mode : Lossy
Stream size : 139 MiB (3%)
Title : MVO (Первый ТВЧ) AC3 2.0 @ 192Kbps
Language : Russian
Default : Yes
Forced : No
Audio #2
ID : 3
Format : DTS
Format/Info : Digital Theater Systems
Mode : 16
Format settings, Endianness : Big
Codec ID : A_DTS
Duration : 1h 41mn
Bit rate mode : Constant
Bit rate : 1 509 Kbps
Channel(s) : 6 channels
Channel positions : Front: L C R, Side: L R, LFE
Sampling rate : 48.0 KHz
Bit depth : 24 bits
Compression mode : Lossy
Delay relative to video : 11ms
Stream size : 1.07 GiB (21%)
Title : Thai DTS 5.1 @ 1509Kbps
Language : Thai
Default : No
Forced : No
Text #1
ID : 4
Format : UTF-8
Codec ID : S_TEXT/UTF8
Codec ID/Info : UTF-8 Plain Text
Language : Russian
Default : No
Forced : No
Text #2
ID : 5
Format : UTF-8
Codec ID : S_TEXT/UTF8
Codec ID/Info : UTF-8 Plain Text
Language : English
Default : No
Forced : No
Menu
00:00:00.000 : en:00:00:00.000
00:10:27.085 : en:00:10:27.085
00:18:37.658 : en:00:18:37.658
00:28:31.668 : en:00:28:31.668
00:38:26.179 : en:00:38:26.179
00:47:59.460 : en:00:47:59.460
00:55:54.977 : en:00:55:54.977
01:04:25.737 : en:01:04:25.737
01:11:09.974 : en:01:11:09.974
01:20:54.349 : en:01:20:54.349
01:30:46.524 : en:01:30:46.524
01:38:09.425 : en:01:38:09.425
Скриншоты
Скачать

Скачать торрент!

Как скачивать? · Что такое торрент? · Рейтинг и ограничения

Сайт не распространяет и не хранит электронные версии произведений, а лишь предоставляет доступ к создаваемому пользователями каталогу ссылок на торрент-файлы, которые содержат только списки хеш-сумм

[Профиль] [ЛС]
Показать сообщения:    
Ответить на тему

Текущее время: Сегодня 00:06

Часовой пояс: GMT + 4



Вы не можете начинать темы
Вы не можете отвечать на сообщения
Вы не можете редактировать свои сообщения
Вы не можете удалять свои сообщения
Вы не можете голосовать в опросах
Вы не можете прикреплять файлы к сообщениям
Вы не можете скачивать файлы