Помпеи / Pompeii (Пол У. С. Андерсон / Paul W.S. Anderson) [2014, Канада, Германия, боевик, драма, мелодрама, приключения, BDRip] Dub (BD RUS) + Original + subs (full pack)

Ответить на тему
 
Автор Сообщение

user ®

Стаж: 7 лет 7 месяцев

Сообщений: 20008

Пост Пост: #1 от 19-Май-2014 00:50

[Цитировать]

Помпеи / Pompeii- Год выпуска: 2014
Выпущено: Канада, Германия
Жанр: боевик, драма, мелодрама, приключения
Продолжительность: 01:44:59
Перевод: Профессиональный (полное дублирование) BD-RUS
+ Оригинальная звуковая дорожка
Субтитры: Русские, Английские (полные, SDH, комментарии) (внешние srt*)-Режиссер: Пол У. С. Андерсон / Paul W.S. Anderson
В ролях: Кит Харингтон, Эмили Браунинг, Кифер Сазерленд, Адевале Акинойе-Агбаже, Джаред Харрис, Кэрри-Энн Мосс, Джессика Лукас, Саша Ройз, Джо Пинг, Карри Грэм
О фильме: История любви раба Майло и благородной Кассии, обрученной с римским сенатором, на фоне извержения Везувия, которое навсегда стерло с лица земли древнеримский город Помпеи...
Релиз:
Автор: kingsize87
Качество: BDRip (источник: / Blu-ray US / 1080p)
Формат: AVI
Видео: 720x304 (2.37:1), 23,976 fps, XviD build 65 ~ 2075 kbps avg, 0.40 bit/pixel
Аудио #1: 48 kHz, AC3 Dolby Digital, 3/2 (L,C,R,l,r) + LFE ch, ~448.00 kbps avg rus
Аудио #2: 48 kHz, AC3 Dolby Digital, 3/2 (L,C,R,l,r) + LFE ch, ~448.00 kbps avg eng
Размер: 2236.19 Mb (1/2 DVD-R)
Скачать: Сэмпл-

Кадры из фильма
-
Mi
Формат : AVI
Формат/Информация : Audio Video Interleave
Профиль формата : OpenDML
Размер файла : 2,18 Гбайт
Продолжительность : 1 ч. 44 м.
Общий поток : 2978 Кбит/сек
Название фильма : Помпеи / Pompeii (2014) BDRip
Режиссёр : kingsize87
Программа кодирования : VirtualDubMod 1.5.10.2 (build 2540/release)
Правообладатель : HQCLUB
Примечание : 18.05.2014
Видео
Идентификатор : 0
Формат : MPEG-4 Visual
Профиль формата : Advanced Simple@L5
Параметр BVOP формата : 1
Параметр QPel формата : Нет
Параметр GMC формата : Без точки перехода
Параметр матрицы формата : Выборочная
Идентификатор кодека : XVID
Идентификатор кодека/Подсказка : XviD
Продолжительность : 1 ч. 44 м.
Битрейт : 2064 Кбит/сек
Ширина : 720 пикселей
Высота : 304 пикселя
Соотношение сторон : 2,35:1
Частота кадров : 23,976 кадра/сек
Цветовое пространство : YUV
Субдискретизация насыщенности : 4:2:0
Битовая глубина : 8 бит
Тип развёртки : Прогрессивная
Метод сжатия : С потерями
Бит/(Пиксели*Кадры) : 0.393
Размер потока : 1,51 Гбайт (69%)
Библиотека кодирования : XviD 65
Аудио #1
Идентификатор : 1
Формат : AC-3
Формат/Информация : Audio Coding 3
Расширение режима : CM (complete main)
Параметр Endianness формата : Big
Идентификатор кодека : 2000
Продолжительность : 1 ч. 44 м.
Вид битрейта : Постоянный
Битрейт : 448 Кбит/сек
Каналы : 6 каналов
Расположение каналов : Front: L C R, Side: L R, LFE
Частота : 48,0 КГц
Битовая глубина : 16 бит
Метод сжатия : С потерями
Размер потока : 336 Мбайт (15%)
Выравнивание : Разделение по промежуткам
Продолжительность промежутка : 42 мс. (1,00 видеокадр)
Время предзагрузки промежутка : 500 мс.
Аудио #2
Идентификатор : 2
Формат : AC-3
Формат/Информация : Audio Coding 3
Расширение режима : CM (complete main)
Параметр Endianness формата : Big
Идентификатор кодека : 2000
Продолжительность : 1 ч. 44 м.
Вид битрейта : Постоянный
Битрейт : 448 Кбит/сек
Каналы : 6 каналов
Расположение каналов : Front: L C R, Side: L R, LFE
Частота : 48,0 КГц
Битовая глубина : 16 бит
Метод сжатия : С потерями
Размер потока : 336 Мбайт (15%)
Выравнивание : Разделение по промежуткам
Продолжительность промежутка : 42 мс. (1,00 видеокадр)
Время предзагрузки промежутка : 500 мс.
-
Скачать

Скачать торрент!

Как скачивать? · Что такое торрент? · Рейтинг и ограничения

Сайт не распространяет и не хранит электронные версии произведений, а лишь предоставляет доступ к создаваемому пользователями каталогу ссылок на торрент-файлы, которые содержат только списки хеш-сумм

[Профиль] [ЛС]
Показать сообщения:    
Ответить на тему

Текущее время: Сегодня 03:14

Часовой пояс: GMT + 4



Вы не можете начинать темы
Вы не можете отвечать на сообщения
Вы не можете редактировать свои сообщения
Вы не можете удалять свои сообщения
Вы не можете голосовать в опросах
Вы не можете прикреплять файлы к сообщениям
Вы не можете скачивать файлы