А я люблю женатого (Каринэ Фолиянц) [2008, драма, мелодрама, DVB]

Ответить на тему
 
Автор Сообщение

user ®

Стаж: 7 лет 7 месяцев

Сообщений: 20008

Пост Пост: #1 от 18-Май-2014 16:50

[Цитировать]

А я люблю женатого
Жанр: драма, мелодрама
Год выпуска: 2008
Продолжительность: 01:28:26
Режиссёр: Каринэ Фолиянц
В ролях: Дарья Волга, Вероника Лысакова, Дмитрий Харатьян, Анна Ардова, Михаил Богдасаров, Жан Даниэль, Татьяна Кравченко, Фархад Махмудов, Раиса Рязанова, Ольга Хохлова, Максим Шибаев
Описание: Олегу (Дмитрий Харатьян) сорок. Ларисе (Дарья Волга) за тридцать. Двадцать лет он прожил с женой Татьяной (Анна Ардова), которую знает с детства (учились в одном классе), у него двенадцатилетняя дочь Ника (Вероника Лысакова). Налаженный быт. Хорошая работа. Пустота в душе – от несбывшихся надежд.
Доп. информация: Запись потока *.ts со спутника HOT BIRD, ремукс в *.mpg программой VideoReDo.
Сэмпл: http://multi-up.com/974511
Качество видео: DVB
Формат видео: MPEG-PS
Видео: MPEG Video, 544(768)x576 (4:3), 25,000 кадров/сек, 2840 Кбит/сек
Аудио: MPEG Audio, 48,0 КГц, 192 Кбит/сек, 2 канала
MediaInfo
Общее
Полное имя : D:\MPG\А я люблю женатого (R1).mpg
Формат : MPEG-PS
Размер файла : 1,91 Гбайт
Продолжительность : 1 ч. 28 м.
Режим общего битрейта : Переменный
Общий поток : 3093 Кбит/сек
Видео
Идентификатор : 224 (0xE0)
Формат : MPEG Video
Версия формата : Version 2
Профиль формата : Main@Main
Параметр BVOP формата : Да
Параметр матрицы формата : Выборочная
Параметр GOP формата : M=3, N=12
Продолжительность : 1 ч. 28 м.
Вид битрейта : Переменный
Битрейт : 2840 Кбит/сек
Максимальный битрейт : 15,0 Мбит/сек
Ширина : 544 пикселя
Высота : 576 пикселей
Соотношение сторон : 4:3
Частота кадров : 25,000 кадров/сек
Цветовое пространство : YUV
Субдискретизация насыщенности : 4:2:0
Битовая глубина : 8 бит
Тип развёртки : Чересстрочная
Порядок развёртки : Верхнее поле первое
Метод сжатия : С потерями
Бит/(Пиксели*Кадры) : 0.362
Временной код первого кадра : 00:00:00:00
Оригинал временного кода : Group of pictures header
Размер потока : 1,75 Гбайт (92%)
Аудио
Идентификатор : 192 (0xC0)
Формат : MPEG Audio
Версия формата : Version 1
Профиль формата : Layer 2
Продолжительность : 1 ч. 28 м.
Вид битрейта : Постоянный
Битрейт : 192 Кбит/сек
Каналы : 2 канала
Частота : 48,0 КГц
Метод сжатия : С потерями
Задержка видео : 5 мс.
Размер потока : 121 Мбайт (6%)
Скриншот c названием фильма Скриншоты
Скачать

Скачать торрент!

Как скачивать? · Что такое торрент? · Рейтинг и ограничения

Сайт не распространяет и не хранит электронные версии произведений, а лишь предоставляет доступ к создаваемому пользователями каталогу ссылок на торрент-файлы, которые содержат только списки хеш-сумм

[Профиль] [ЛС]
Показать сообщения:    
Ответить на тему

Текущее время: Сегодня 01:46

Часовой пояс: GMT + 4



Вы не можете начинать темы
Вы не можете отвечать на сообщения
Вы не можете редактировать свои сообщения
Вы не можете удалять свои сообщения
Вы не можете голосовать в опросах
Вы не можете прикреплять файлы к сообщениям
Вы не можете скачивать файлы