Против природы / Against the Wild (Ричард Боддингтон / Richard Boddington) [2014, Канада, приключения, семейный, WEB-DLRip] VO (R.A.I.M)

Ответить на тему
 
Автор Сообщение

user ®

Стаж: 7 лет 7 месяцев

Сообщений: 20008

Пост Пост: #1 от 18-Май-2014 16:50

[Цитировать]

Против природы / Against the Wild-
  • Страна: Канада
    Жанр: приключения, семейный
    Год выпуска: 2014
    Продолжительность: 01:32:26-
  • Перевод: Любительский (Одноголосый закадровый) (R.A.I.M)
    Cубтитры: нет
    Режиссер: Ричард Боддингтон / Richard Boddington-
  • В ролях: С.Дж. Адамс, Грег Кэмпбелл, Сара Дикинс, Рейнбоу Фрэнкс, Дженнифер Гибсон, Наташа Хенстридж, Эрин Питт, Шон Сторер, Джон Тенч, Тед Уиттэлл.-
  • Описание: Брат с сестрой и их преданный пес после авиационной катастрофы оказываются в той части Аляски, где царят первозданная красота и природная жестокость. Им придется объединить все свои навыки, забыть прежние обиды и научиться доверять друг другу, чтобы вырваться из этого плена.-
  • Доп. информация: |КиноПоиск|IMDB|Сэмпл|-Качество видео: WEB-DLRip
    Формат видео: AVI
    Видео кодек: XviD
    Аудио кодек: AC3-Видео: XviD, 720x400 (16:9), 1919 kbps, 23,976 fps, 0,278 bpp
    Аудио: AC3, 2.0, 48 kHz, 192 kbps, 16 bit-
MediaInfo
General
Название : D:\Торенты\Against.the.Wild.L1.2014.WEBDLRip..avi
Формат : AVI
Формат/Info : Audio Video Interleave
Размер файла : 1.37 GiB
Длительность : 1h 32mn
Общий Битрейт : 2 121 Kbps
Создано приложением : VirtualDubMod 1.5.10.3 | www.virtualdub-fr.org || (build 2550/release)
Writing library : VirtualDubMod build 2550/release
Video
ID : 0
Формат : MPEG-4 Visual
Формат profile : Advanced Simple@L5
Формат настройки, BVOP : 2
Формат настройки, QPel : No
Формат настройки, GMC : No warppoints
Формат настройки, Matrix : Custom
Кодек ID : XVID
Кодек ID/Hint : XviD
Длительность : 1h 32mn
Битрейт : 1 919 Kbps
Width : 720 пикселей
Высота : 400 пикселей
Соотношение кадра : 16:9
Частота кадров : 23.976 fps
Цветопередача : YUV
Chroma subsampling : 4:2:0
Разрядность : 8 bits
Тип сканирования : Progressive
Режим сжатия : Lossy
Bits/(Pixel*Frame) : 0.278
Размер потока : 1.24 GiB (90%)
Writing library : XviD 1.2.1 (UTC 2008-12-04)
Audio
ID : 1
Формат : AC-3
Формат/Info : Audio Coding 3
Расширение режима : CM (complete main)
Кодек ID : 2000
Длительность : 1h 32mn
Битрейт mode : Constant
Битрейт : 192 Kbps
Каналы(s) : 2 канала
Каналы positions : Front: L R
Частота : 48.0 KHz
Разрядность : 16 bits
Режим сжатия : Lossy
Размер потока : 127 MiB (9%)
Выравнивание : Split accross interleaves
Interleave, Длительность : 42 ms (1.00 video frame)
Interleave, preload Длительность : 500 ms
Скриншоты
Скачать

Скачать торрент!

Как скачивать? · Что такое торрент? · Рейтинг и ограничения

Сайт не распространяет и не хранит электронные версии произведений, а лишь предоставляет доступ к создаваемому пользователями каталогу ссылок на торрент-файлы, которые содержат только списки хеш-сумм

[Профиль] [ЛС]
Показать сообщения:    
Ответить на тему

Текущее время: Сегодня 13:42

Часовой пояс: GMT + 4



Вы не можете начинать темы
Вы не можете отвечать на сообщения
Вы не можете редактировать свои сообщения
Вы не можете удалять свои сообщения
Вы не можете голосовать в опросах
Вы не можете прикреплять файлы к сообщениям
Вы не можете скачивать файлы