Я, Франкенштейн / I, Frankenstein (Стюарт Битти / Stuart Beattie) [2014 г., США, Австралия, фэнтези, боевик, приключения, BDRip-AVC] Dub + Sub (Rus, Eng)

Ответить на тему
 
Автор Сообщение

user ®

Стаж: 7 лет 7 месяцев

Сообщений: 20008

Пост Пост: #1 от 18-Май-2014 10:30

[Цитировать]

Я, Франкенштейн / I, Frankenstein«In the battle between good and evil, an immortal holds the key»-- Год выпуска: 2014
Страна: США, Австралия
Жанр: фэнтези, боевик, приключения
Продолжительность: 01:32:23
Перевод: Профессиональный (полное дублирование)
Субтитры: русские, английские(Full + SDH)--Режиссер: Стюарт Битти
В ролях: Аарон Экхарт, Ивонн Страховски, Билл Найи, Джей Кортни, Миранда Отто, Кэйтлин Стэйси, Кевин Гревье, Аден Янг, Дениз Акдениз, Крис Пэнг, Вирджиния Ле Брун--Описание: Он — монстр. Он — двухсотлетний плод безумной фантазии своего создателя. Он — легенда. Мир, в котором он живет, населен древними горгульями и бессмертными демонами, которые сражаются за обладание человечеством. Величественные соборы скрывают огромные арсеналы, за дверьми научных лабораторий проводятся эксперименты по воскрешению мертвых. Война двух кланов могущественных существ достигает своего пика. И только он, Адам, монстр Франкенштейна, в силах ее остановить.--Релиз от: -- --Качество: BDRip-AVC (исходник: Blu-ray)
Формат: MKV
Видео: х.264, 960x400 (2,40:1), 23,976 fps, 2072 Кbps, 0.225 bit/pixel
Аудио: 48 kHz, AC3 Dolby Digital, 2/0 (L,C) ch, 192.00 kbps
-
-
MediaInfo:
General
Unique ID : 175010634151826750400818047877471863901 (0x83A9D2747C29E05B926437BA70F9045D)
Complete name : C:\Users\Азат\Downloads\Ya.Frankenshteyn.2013.US.RUS.BDRip.x264.-HELLYWOOD.mkv
Format : Matroska
Format version : Version 4 / Version 2
File size : 1.46 GiB
Duration : 1h 32mn
Overall bit rate : 2 261 Kbps
Movie name : HELLYWOOD - rip by potroks
Encoded date : UTC 2014-05-04 17:01:05
Writing application : mkvmerge v5.9.0 ('On The Loose') built on Dec 15 2012 16:39:58
Writing library : libebml v1.3.0 + libmatroska v1.4.0
Video
ID : 1
Format : AVC
Format/Info : Advanced Video Codec
Format profile : High@L4.1
Format settings, CABAC : Yes
Format settings, ReFrames : 12 frames
Codec ID : V_MPEG4/ISO/AVC
Duration : 1h 32mn
Bit rate : 2 072 Kbps
Width : 960 pixels
Height : 400 pixels
Display aspect ratio : 2.40:1
Frame rate mode : Constant
Frame rate : 23.976 fps
Color space : YUV
Chroma subsampling : 4:2:0
Bit depth : 8 bits
Scan type : Progressive
Bits/(Pixel*Frame) : 0.225
Stream size : 1.31 GiB (90%)
Title : I, Frankenstein
Writing library : x264 core 130 r2273 b3065e6
Encoding settings : cabac=1 / ref=12 / deblock=1:-3:-2 / analyse=0x3:0x133 / me=umh / subme=11 / psy=1 / psy_rd=1.00:0.00 / mixed_ref=1 / me_range=32 / chroma_me=1 / trellis=2 / 8x8dct=1 / cqm=0 / deadzone=21,11 / fast_pskip=0 / chroma_qp_offset=-2 / threads=9 / lookahead_threads=6 / sliced_threads=0 / nr=0 / decimate=0 / interlaced=0 / bluray_compat=0 / constrained_intra=0 / bframes=13 / b_pyramid=2 / b_adapt=2 / b_bias=0 / direct=3 / weightb=1 / open_gop=0 / weightp=2 / keyint=250 / keyint_min=23 / scenecut=40 / intra_refresh=0 / rc_lookahead=60 / rc=2pass / mbtree=0 / bitrate=2072 / ratetol=1.0 / qcomp=0.70 / qpmin=0 / qpmax=69 / qpstep=4 / cplxblur=20.0 / qblur=0.5 / vbv_maxrate=20000 / vbv_bufsize=20000 / nal_hrd=none / ip_ratio=1.35 / pb_ratio=1.25 / aq=1:0.90
Language : English
Default : Yes
Forced : No
Audio
ID : 2
Format : AC-3
Format/Info : Audio Coding 3
Mode extension : CM (complete main)
Format settings, Endianness : Big
Codec ID : A_AC3
Duration : 1h 32mn
Bit rate mode : Constant
Bit rate : 192 Kbps
Channel(s) : 2 channels
Channel positions : Front: L R
Sampling rate : 48.0 KHz
Bit depth : 16 bits
Compression mode : Lossy
Stream size : 127 MiB (8%)
Title : Dub | DD 2.0 @ 192 kbps - BD RUS
Language : Russian
Default : Yes
Forced : No
Text #1
ID : 3
Format : UTF-8
Codec ID : S_TEXT/UTF8
Codec ID/Info : UTF-8 Plain Text
Language : Russian
Default : No
Forced : No
Text #2
ID : 4
Format : UTF-8
Codec ID : S_TEXT/UTF8
Codec ID/Info : UTF-8 Plain Text
Title : Full
Language : English
Default : No
Forced : No
Text #3
ID : 5
Format : UTF-8
Codec ID : S_TEXT/UTF8
Codec ID/Info : UTF-8 Plain Text
Title : SDH
Language : English
Default : No
Forced : No
Menu
00:02:28.857 : en:(01)00:02:28:857
00:04:56.421 : en:(02)00:04:56:421
00:09:19.767 : en:(03)00:09:19:767
00:12:02.471 : en:(04)00:12:02:471
00:17:39.725 : en:(05)00:17:39:725
00:21:26.994 : en:(06)00:21:26:994
00:24:58.497 : en:(07)00:24:58:497
00:29:42.614 : en:(08)00:29:42:614
00:33:49.569 : en:(09)00:33:49:569
00:37:56.274 : en:(10)00:37:56:274
00:43:54.632 : en:(11)00:43:54:632
00:48:23.233 : en:(12)00:48:23:233
00:52:29.187 : en:(13)00:52:29:187
00:56:04.736 : en:(14)00:56:04:736
00:59:56.301 : en:(15)00:59:56:301
01:06:15.513 : en:(16)01:06:15:513
01:08:58.467 : en:(17)01:08:58:467
01:12:59.333 : en:(18)01:12:59:333
01:16:24.538 : en:(19)01:16:24:538
01:20:22.859 : en:(20)01:20:22:859
01:22:00.665 : en:(21)01:22:00:665
01:32:23.538 : en:(22)01:32:23:538
Сравнение:
Сравнение с [url=http://***/forum/viewtopic.php?t=4681794]этим[/url]
Скриншоты:
Скачать

Скачать торрент!

Как скачивать? · Что такое торрент? · Рейтинг и ограничения

Сайт не распространяет и не хранит электронные версии произведений, а лишь предоставляет доступ к создаваемому пользователями каталогу ссылок на торрент-файлы, которые содержат только списки хеш-сумм

[Профиль] [ЛС]
Показать сообщения:    
Ответить на тему

Текущее время: Сегодня 18:35

Часовой пояс: GMT + 4



Вы не можете начинать темы
Вы не можете отвечать на сообщения
Вы не можете редактировать свои сообщения
Вы не можете удалять свои сообщения
Вы не можете голосовать в опросах
Вы не можете прикреплять файлы к сообщениям
Вы не можете скачивать файлы