Охотницы / The Huntresses / Joseonminyeo Samchongsa (Чжэ Хён Пак / Jae-Hyun Park) [2014, Южная Корея, боевик, комедия, приключения, HDRip] MVO (GREEN TEA)

Ответить на тему
 
Автор Сообщение

user ®

Стаж: 11 лет

Сообщений: 15151

Пост Пост: #1 от 17-Май-2014 23:05

[Цитировать]

Охотницы / The Huntresses / Joseonminyeo Samchongsa
Страна: Южная Корея
Жанр: боевик, комедия, приключения
Год выпуска: 2014
Продолжительность: 01:47:09
Перевод: Любительский (многоголосый закадровый) GREEN TEA
Cубтитры: нет
Оригинальная аудиодорожка: нет
Режиссер: Чжэ Хён Пак / Jae-Hyun Park
В ролях: Чжи Вон Ха, Е Вон Кан, Га Ин Сон, Сан Ук Чжу, Чан Сок Ко, Дон Бин Пак, Ён Чжин Ха, Хи Вон Юн, Тхэк Ха Хван, Ён Су Хан, Ю Чжун Ли, Мин Хо Кан, Чжон Хун Ли, Иль Мок Пак, Гван Чжэ Со, Кук Чжин Хан, Хи Сок Ли, Чжи Хи Чжин, Сан У Чхэ, И Чжун Син, Хо Бин Чон, Чон Хван Гон, Се Бок Сон, Хи Чжи Ван, Хи Су Чон
Описание: Период династии Чосон. Три красивых девушки-мушкетера ведут борьбу с мощной группой, которая пытается свергнуть королевскую семью и получить абсолютную власть. Лидером мушкетеров является Джин-Ок, умная и праведная женщина. Хонг-Дан единственная замужняя женщина из трех. Самая молодая, Га-Би, превосходит остальных в драке.
Сэмпл: http://multi-up.com/974362
Качество видео: HDRip (исходник - The.Huntresses.2013.720p.HDRip.H264-KTH)
Формат видео: AVI
Видео: XviD, 837 kbps, 640 х 272 pixels, 23.976 fps
Аудио: MP3, 128 Kbps, 2 channels, 48.0 KHz

MediaInfo
General
Complete name : D:\The.Huntresses.2013.HDRip.avi
Format : AVI
Format/Info : Audio Video Interleave
File size : 747 MiB
Duration : 1h 47mn
Overall bit rate : 975 Kbps
Writing application : VirtualDubMod 1.5.10.3 | www.virtualdub-fr.org || (build 2550/release)
Writing library : VirtualDubMod build 2550/release
Video
ID : 0
Format : MPEG-4 Visual
Format profile : Advanced Simple@L5
Format settings, BVOP : Yes
Format settings, QPel : No
Format settings, GMC : No warppoints
Format settings, Matrix : Custom
Codec ID : XVID
Codec ID/Hint : XviD
Duration : 1h 47mn
Bit rate : 837 Kbps
Width : 640 pixels
Height : 272 pixels
Display aspect ratio : 2.35:1
Frame rate : 23.976 fps
Color space : YUV
Chroma subsampling : 4:2:0
Bit depth : 8 bits
Scan type : Progressive
Compression mode : Lossy
Bits/(Pixel*Frame) : 0.201
Stream size : 642 MiB (86%)
Writing library : XviD 73
Audio
ID : 1
Format : MPEG Audio
Format version : Version 1
Format profile : Layer 3
Mode : Joint stereo
Codec ID : 55
Codec ID/Hint : MP3
Duration : 1h 47mn
Bit rate mode : Constant
Bit rate : 128 Kbps
Channel(s) : 2 channels
Sampling rate : 48.0 KHz
Compression mode : Lossy
Stream size : 98.1 MiB (13%)
Alignment : Aligned on interleaves
Interleave, duration : 42 ms (1.00 video frame)
Interleave, preload duration : 504 ms
Скриншот c названием фильма Скриншоты
Скачать

Скачать торрент! Охотницы / The Huntresses / Joseonminyeo Samchongsa (Чжэ Хён Пак / Jae-Hyun Park) [2014, Южная Корея, боевик, комедия, приключения, HDRip] MVO (GREEN TEA)

Как скачивать? · Что такое торрент? · Рейтинг и ограничения

Сайт не распространяет и не хранит электронные версии произведений, а лишь предоставляет доступ к создаваемому пользователями каталогу ссылок на торрент-файлы, которые содержат только списки хеш-сумм

[Профиль] [ЛС]
Показать сообщения:    
Ответить на тему

Текущее время: Сегодня 19:59

Часовой пояс: GMT + 4



Вы не можете начинать темы
Вы не можете отвечать на сообщения
Вы не можете редактировать свои сообщения
Вы не можете удалять свои сообщения
Вы не можете голосовать в опросах
Вы не можете прикреплять файлы к сообщениям
Вы не можете скачивать файлы