РобоКоп / RoboCop (Жозе Падилья / José Padilha) [2014 г., США, фантастика, боевик, криминал, BDRip-AVC] Dub + Sub (Rus, Eng, Ukr)

Ответить на тему
 
Автор Сообщение

user ®

Стаж: 7 лет 7 месяцев

Сообщений: 20008

Пост Пост: #1 от 17-Май-2014 23:05

[Цитировать]

РобоКоп / RoboCop«У зла нет шансов»-- Год выпуска: 2014
Страна: США
Жанр: фантастика, боевик, криминал
Продолжительность: 01:57:29
Перевод: Профессиональный (полное дублирование)
Субтитры: русские, английские, украинские (Full + SDH + SDH-Colored)--Режиссер: Жозе Падилья
В ролях: Юэль Киннаман, Гари Олдман, Майкл Китон, Эбби Корниш, Джей Барушель, Сэмюэл Л. Джексон, Айми Гарсиа, Дженнифер Или, Джеки Эрл Хейли, Майкл К. Уильямс--Описание: Алекс Мерфи, любящий муж, отец и хороший полицейский, борется с лавиной преступности и коррупции, обрушившейся на Детройт. Его, тяжело раненного при исполнении служебных обязанностей, OmniCorp решает задействовать в своем робототехническом эксперименте, чтобы спасти герою жизнь. Алекс возвращается на улицы города, имея в багаже новые способности, но задаваясь вопросами, с которыми человеку никогда ранее не приходилось сталкиваться.--Релиз от: -- --Качество: BDRip-AVC (исходник: Blu-ray)
Формат: MKV
Видео: х.264, 960x400 (2,40:1), 23,976 fps, 1396 Кbps, 0.152 bit/pixel
Аудио: 48 kHz, AC3 Dolby Digital, 3/2 (L,C,R,l,r) + LFE ch, 384.00 kbps
-
-
MediaInfo:
Общее
Уникальный идентификатор : 172382982634212300006235370357100961879 (0x81AFC13B9BBDA99B9C5CC40BF180E057)
Полное имя : C:\Users\Downloads\Robokop.2014.RUS.BDRip.x264.-HELLYWOOD.mkv
Формат : Matroska
Версия формата : Version 4 / Version 2
Размер файла : 1,45 Гбайт
Продолжительность : 1 ч. 57 м.
Общий поток : 1771 Кбит/сек
Название фильма : HELLYWOOD - rip by potroks
Дата кодирования : UTC 2014-05-16 14:07:02
Программа кодирования : mkvmerge v5.9.0 ('On The Loose') built on Dec 15 2012 16:39:58
Библиотека кодирования : libebml v1.3.0 + libmatroska v1.4.0
Видео
Идентификатор : 1
Формат : AVC
Формат/Информация : Advanced Video Codec
Профиль формата : High@L4.1
Параметр CABAC формата : Да
Параметр ReFrames формата : 12 кадров
Идентификатор кодека : V_MPEG4/ISO/AVC
Продолжительность : 1 ч. 57 м.
Битрейт : 1396 Кбит/сек
Ширина : 960 пикселей
Высота : 400 пикселей
Соотношение сторон : 2,40:1
Режим частоты кадров : Постоянный
Частота кадров : 23,976 кадра/сек
Цветовое пространство : YUV
Субдискретизация насыщенности : 4:2:0
Битовая глубина : 8 бит
Тип развёртки : Прогрессивная
Бит/(Пиксели*Кадры) : 0.152
Размер потока : 1,11 Гбайт (76%)
Заголовок : RoboCop
Библиотека кодирования : x264 core 130 r2273 b3065e6
Настройки программы : cabac=1 / ref=12 / deblock=1:-3:-2 / analyse=0x3:0x133 / me=umh / subme=11 / psy=1 / psy_rd=0.97:0.00 / mixed_ref=1 / me_range=48 / chroma_me=1 / trellis=2 / 8x8dct=1 / cqm=0 / deadzone=21,11 / fast_pskip=0 / chroma_qp_offset=-2 / threads=9 / lookahead_threads=6 / sliced_threads=0 / nr=0 / decimate=0 / interlaced=0 / bluray_compat=0 / constrained_intra=0 / bframes=13 / b_pyramid=2 / b_adapt=2 / b_bias=0 / direct=3 / weightb=1 / open_gop=0 / weightp=2 / keyint=250 / keyint_min=23 / scenecut=40 / intra_refresh=0 / rc_lookahead=60 / rc=2pass / mbtree=0 / bitrate=1396 / ratetol=1.0 / qcomp=0.70 / qpmin=0 / qpmax=69 / qpstep=4 / cplxblur=20.0 / qblur=0.5 / vbv_maxrate=20000 / vbv_bufsize=20000 / nal_hrd=none / ip_ratio=1.35 / pb_ratio=1.25 / aq=1:0.90
Язык : English
Default : Да
Forced : Нет
Аудио
Идентификатор : 2
Формат : AC-3
Формат/Информация : Audio Coding 3
Расширение режима : CM (complete main)
Параметр Endianness формата : Big
Идентификатор кодека : A_AC3
Продолжительность : 1 ч. 57 м.
Вид битрейта : Постоянный
Битрейт : 384 Кбит/сек
Каналы : 6 каналов
Расположение каналов : Front: L C R, Side: L R, LFE
Частота : 48,0 КГц
Битовая глубина : 16 бит
Метод сжатия : С потерями
Размер потока : 323 Мбайт (22%)
Заголовок : Dub | DD 5.1 @ 384 kbps - BD CEE
Язык : Russian
Default : Да
Forced : Нет
Текст #1
Идентификатор : 3
Формат : UTF-8
Идентификатор кодека : S_TEXT/UTF8
Идентификатор кодека/Информация : UTF-8 Plain Text
Язык : Russian
Default : Нет
Forced : Нет
Текст #2
Идентификатор : 4
Формат : UTF-8
Идентификатор кодека : S_TEXT/UTF8
Идентификатор кодека/Информация : UTF-8 Plain Text
Заголовок : Forced
Язык : Russian
Default : Да
Forced : Нет
Текст #3
Идентификатор : 5
Формат : UTF-8
Идентификатор кодека : S_TEXT/UTF8
Идентификатор кодека/Информация : UTF-8 Plain Text
Заголовок : Forced
Язык : Ukrainian
Default : Нет
Forced : Нет
Текст #4
Идентификатор : 6
Формат : UTF-8
Идентификатор кодека : S_TEXT/UTF8
Идентификатор кодека/Информация : UTF-8 Plain Text
Язык : Ukrainian
Default : Нет
Forced : Нет
Текст #5
Идентификатор : 7
Формат : UTF-8
Идентификатор кодека : S_TEXT/UTF8
Идентификатор кодека/Информация : UTF-8 Plain Text
Заголовок : Full
Язык : English
Default : Нет
Forced : Нет
Текст #6
Идентификатор : 8
Формат : UTF-8
Идентификатор кодека : S_TEXT/UTF8
Идентификатор кодека/Информация : UTF-8 Plain Text
Заголовок : Forced
Язык : English
Default : Нет
Forced : Нет
Текст #7
Идентификатор : 9
Формат : UTF-8
Идентификатор кодека : S_TEXT/UTF8
Идентификатор кодека/Информация : UTF-8 Plain Text
Заголовок : SDH
Язык : English
Default : Нет
Forced : Нет
Текст #8
Идентификатор : 10
Формат : UTF-8
Идентификатор кодека : S_TEXT/UTF8
Идентификатор кодека/Информация : UTF-8 Plain Text
Заголовок : SDH-Colored
Язык : English
Default : Нет
Forced : Нет
Меню
00:04:33.898 : en:(01)00:04:33:898
00:08:51.739 : en:(02)00:08:51:739
00:14:33.914 : en:(03)00:14:33:914
00:17:01.603 : en:(04)00:17:01:603
00:19:27.040 : en:(05)00:19:27:040
00:21:52.936 : en:(06)00:21:52:936
00:26:13.572 : en:(07)00:26:13:572
00:30:47.971 : en:(08)00:30:47:971
00:32:48.675 : en:(09)00:32:48:675
00:36:12.378 : en:(10)00:36:12:378
00:39:06.969 : en:(11)00:39:06:969
00:43:03.497 : en:(12)00:43:03:497
00:45:40.654 : en:(13)00:45:40:654
00:52:10.377 : en:(14)00:52:10:377
00:57:21.187 : en:(15)00:57:21:187
01:01:23.888 : en:(16)01:01:23:888
01:02:59.901 : en:(17)01:02:59:901
01:06:05.920 : en:(18)01:06:05:920
01:10:30.476 : en:(19)01:10:30:476
01:13:26.527 : en:(20)01:13:26:527
01:18:24.866 : en:(21)01:18:24:866
01:21:56.202 : en:(22)01:21:56:202
01:26:04.993 : en:(23)01:26:04:993
01:28:06.906 : en:(24)01:28:06:906
01:32:02.975 : en:(25)01:32:02:975
01:35:52.955 : en:(26)01:35:52:955
01:38:30.654 : en:(27)01:38:30:654
01:41:30.751 : en:(28)01:41:30:751
01:43:44.635 : en:(29)01:43:44:635
01:46:41.561 : en:(30)01:46:41:561
01:50:12.689 : en:(31)01:50:12:689
01:57:28.958 : en:(32)01:57:28:958
Сравнение:
Сравнение с [url=http://***/forum/viewtopic.php?t=4735919]этим[/url]
Скриншоты:
Скачать

Скачать торрент!

Как скачивать? · Что такое торрент? · Рейтинг и ограничения

Сайт не распространяет и не хранит электронные версии произведений, а лишь предоставляет доступ к создаваемому пользователями каталогу ссылок на торрент-файлы, которые содержат только списки хеш-сумм

[Профиль] [ЛС]
Показать сообщения:    
Ответить на тему

Текущее время: Сегодня 08:12

Часовой пояс: GMT + 4



Вы не можете начинать темы
Вы не можете отвечать на сообщения
Вы не можете редактировать свои сообщения
Вы не можете удалять свои сообщения
Вы не можете голосовать в опросах
Вы не можете прикреплять файлы к сообщениям
Вы не можете скачивать файлы