Исполнитель желаний 3: Камень Дьявола / Wishmaster 3: Beyond the Gates of Hell (Крис Энджел / Chris Angel) [2001, Канада, США, фэнтези, ужасы, WEB-DL 720p] MVO + Sub Rus, Eng + Original Eng

Ответить на тему
 
Автор Сообщение

user ®

Стаж: 7 лет 7 месяцев

Сообщений: 20008

Пост Пост: #1 от 17-Май-2014 15:00

[Цитировать]

Исполнитель желаний 3: Камень Дьявола / Wishmaster 3: Beyond the Gates of Hell
Страна: Канада, США
Студия: Artisan Entertainment и другие.
Жанр: фэнтези, ужасы
Год выпуска: 2001
Продолжительность: 01:32:19
Перевод: Профессиональный (многоголосый закадровый)
Cубтитры: русские, английские SDH
Оригинальная аудиодорожка: английский
Режиссер: Крис Энджел / Chris Angel
В ролях: Джейсон Коннери, А.Дж. Кук, Тобиас Мелер, Луизетт Гейсс, Аарон Смолински, Даниэлла Евангелиста, Эммануэль Вожье, Джон Новак, Кейт Якула, Рик Скин
Описание: Исследуя таинственный старинный артефакт, известный на протяжении веков под названием «дьявольский камень», студентка Дайана случайно освободила заточенного в нем бессмертного Джинна. И в соответствии с древним пророчеством это ужасное порождение ада, наделенное даром исполнять людские желания ада, стремится погрузить Землю в вечную тьму и хаос. Теперь только три желания Дайаны отделяют человечество от полного уничтожения, и от нее зависит будущее всей земной цивилизации. Удастся ли ей остановить Джинна, пока этот могущественный демон ада не убил всех ее друзей и не пришел за ней самой? Или же Дайана окажется беспомощной перед дикой разрушительной силой зла, направленной против мира людей?
Доп. информация: Видеоряд позаимствован у пользователя CITROMON1980 с кинозала. В рипе были только MVO и оригинальные сабы. Полностью переделаны английские субтитры - все буквы были заглавными. Оригинальная дорожка и русские сабы взяты [url=http://***/forum/viewtopic.php?t=1004043/]отсюда[/url].

Sample
Тип релиза: WEB-DL 720p
Контейнер: MKV
Видео: MPEG4 AVC Video, H264, 16:9, 1280x716, 23,976 fps, 3982 kbps
Аудио: Russian (AC3, 6 ch, 384 kbps, 16 bits, 48.0 KHz) - MVO
Аудио 2: English (AC3, 6 ch, 384 kbps, 16 bits, 48.0 KHz) - оригинал
Формат субтитров: softsub (SRT)
MediaInfo
General
Unique ID : 243361603641258042835978335880075009354 (0xB715BD6F1C96F54882F791CA164FDD4A)
Complete name : E:\1\3 часть\Wishmaster 3. Beyond the Gates of Hell (2001).Web-DL.720p.mkv
Format : Matroska
Format version : Version 4 / Version 2
File size : 3.13 GiB
Duration : 1h 32mn
Overall bit rate : 4 846 Kbps
Encoded date : UTC 2014-05-15 14:05:41
Writing application : mkvmerge v6.1.0 ('Old Devil') built on Mar 2 2013 14:32:37
Writing library : libebml v1.3.0 + libmatroska v1.4.0
Video
ID : 1
Format : AVC
Format/Info : Advanced Video Codec
Format profile : High@L3.1
Format settings, CABAC : No
Format settings, ReFrames : 2 frames
Codec ID : V_MPEG4/ISO/AVC
Duration : 1h 32mn
Bit rate : 3 982 Kbps
Width : 1 280 pixels
Height : 716 pixels
Display aspect ratio : 16:9
Frame rate mode : Constant
Frame rate : 23.976 fps
Color space : YUV
Chroma subsampling : 4:2:0
Bit depth : 8 bits
Scan type : Progressive
Bits/(Pixel*Frame) : 0.181
Stream size : 2.57 GiB (82%)
Language : English
Default : Yes
Forced : No
Color primaries : BT.709
Transfer characteristics : BT.709
Matrix coefficients : BT.709
Audio #1
ID : 2
Format : AC-3
Format/Info : Audio Coding 3
Mode extension : CM (complete main)
Format settings, Endianness : Big
Codec ID : A_AC3
Duration : 1h 32mn
Bit rate mode : Constant
Bit rate : 384 Kbps
Channel count : 6 channels
Channel positions : Front: L C R, Side: L R, LFE
Sampling rate : 48.0 KHz
Bit depth : 16 bits
Compression mode : Lossy
Stream size : 254 MiB (8%)
Language : Russian
Default : Yes
Forced : Yes
Audio #2
ID : 3
Format : AC-3
Format/Info : Audio Coding 3
Mode extension : CM (complete main)
Format settings, Endianness : Big
Codec ID : A_AC3
Duration : 1h 32mn
Bit rate mode : Constant
Bit rate : 384 Kbps
Channel count : 6 channels
Channel positions : Front: L C R, Side: L R, LFE
Sampling rate : 48.0 KHz
Bit depth : 16 bits
Compression mode : Lossy
Stream size : 254 MiB (8%)
Language : English
Default : No
Forced : No
Text #1
ID : 4
Format : UTF-8
Codec ID : S_TEXT/UTF8
Codec ID/Info : UTF-8 Plain Text
Language : Russian
Default : No
Forced : No
Text #2
ID : 5
Format : UTF-8
Codec ID : S_TEXT/UTF8
Codec ID/Info : UTF-8 Plain Text
Language : English
Default : No
Forced : No
Menu
00:00:00.000 : en:Chapter 1
00:01:25.000 : en:Chapter 2
00:09:34.000 : en:Chapter 3
00:17:11.000 : en:Chapter 4
00:26:45.000 : en:Chapter 5
00:37:15.000 : en:Chapter 6
00:44:57.000 : en:Chapter 7
00:52:16.000 : en:Chapter 8
00:59:41.000 : en:Chapter 9
01:08:42.000 : en:Chapter 10
01:17:35.000 : en:Chapter 11
01:27:49.000 : en:Chapter 12
Скриншоты
Скачать

Скачать торрент!

Как скачивать? · Что такое торрент? · Рейтинг и ограничения

Сайт не распространяет и не хранит электронные версии произведений, а лишь предоставляет доступ к создаваемому пользователями каталогу ссылок на торрент-файлы, которые содержат только списки хеш-сумм

[Профиль] [ЛС]
Показать сообщения:    
Ответить на тему

Текущее время: Сегодня 08:56

Часовой пояс: GMT + 4



Вы не можете начинать темы
Вы не можете отвечать на сообщения
Вы не можете редактировать свои сообщения
Вы не можете удалять свои сообщения
Вы не можете голосовать в опросах
Вы не можете прикреплять файлы к сообщениям
Вы не можете скачивать файлы