Семейное дело / A Family Thing (Ричард Пирс / Richard Pearce) [1996, США, драма, мелодрама, HDTV 1080i] DVO (НТВ+) + Sub Eng + Original Eng

Ответить на тему
 
Автор Сообщение

user ®

Стаж: 7 лет 7 месяцев

Сообщений: 20008

Пост Пост: #1 от 17-Май-2014 11:50

[Цитировать]

Семейное дело / A Family Thing
Страна: США
Студия: Butcher's Run Films
Жанр: драма, мелодрама
Год выпуска: 1996
Продолжительность: 01:44:47
Перевод: Профессиональный (двухголосый закадровый) НТВ+
Cубтитры: английские
Оригинальная аудиодорожка: английский
Режиссер: Ричард Пирс / Richard Pearce
В ролях: Роберт Дюволл, Джеймс Эрл Джонс, Майкл Бич, Дэвид Кит, Ирма П. Холл, Реджина Тэйлор, Грэйс Забриски
Описание: У Роберта Дюволла умирает престарелая мать, а через несколько дней ему передают ее предсмертное письмо, в котором она сообщает, что он сын чернокожей служанки от ее мужа. Она пишет ему, что его совершенно черный брат (Джеймс Эрл Джонс) живет в Чикаго, и выражает последнюю волю, чтобы он нашел его и повидался с ним. После некоторых колебаний Дюволл выполняет волю матери и встречается с братом, бывшим полицейским, работающим теперь охранником. После короткого, совсем не сентиментального разговора он узежает, но по дороге его избили и ограбили. Пришлось задержаться, и тогда уже они узнали друг друга гораздо ближе. Совсем непростая ситуация, когда ты вдруг узнаешь, что ты негр. Авторы фильм построили на этом далеком для нашего зрителя материале неплохую драму
II Сэмпл II IMDB II
Доп. информация:
Оригинальная дорога и субтитры найдены в сети в свободном доступе
Тип релиза: HDTV 1080i
Контейнер: MKV
Видео: AVC 1920x1080 (16:9) 25.0fps Bit rate 7901Kbps
Аудио 1: MP2 48.0 KHz 2ch. 192kbps rus dvo
Аудио 2: AC3 48.0 KHz 6ch. 448kbps eng
Формат субтитров: softsub (SRT)
MediaInfo
General
Complete name : E:\torrent\A.Family.Thing.1996.HDTV 1080i.mkv
Format : Matroska
File size : 6.38 GiB
Duration : 1h 44mn
Overall bit rate : 8 714 Kbps
Encoded date : UTC 2014-05-15 01:27:58
Writing application : mkvmerge v6.9.1 ('Blue Panther') 32bit built on Apr 18 2014 18:15:44
Writing library : libebml v1.3.0 + libmatroska v1.4.1
Video
ID : 1
Format : AVC
Format/Info : Advanced Video Codec
Format profile : High@L4.0
Format settings, CABAC : Yes
Format settings, ReFrames : 3 frames
Format settings, GOP : M=1, N=64
Muxing mode : Container profile=Unknown@4.0
Codec ID : V_MPEG4/ISO/AVC
Duration : 1h 44mn
Bit rate : 7 901 Kbps
Width : 1 920 pixels
Height : 1 080 pixels
Display aspect ratio : 16:9
Frame rate : 50.000 fps
Original frame rate : 25.000 fps
Standard : Component
Color space : YUV
Chroma subsampling : 4:2:0
Bit depth : 8 bits
Scan type : Interlaced
Scan order : Top Field First
Bits/(Pixel*Frame) : 0.076
Stream size : 5.78 GiB (91%)
Title : A.Family.Thing.1996.HDTV1080i
Color primaries : BT.709-5, BT.1361, IEC 61966-2-4, SMPTE RP177
Transfer characteristics : BT.709-5, BT.1361
Matrix coefficients : BT.709-5, BT.1361, IEC 61966-2-4 709, SMPTE RP177
Audio #1
ID : 2
Format : MPEG Audio
Format version : Version 1
Format profile : Layer 2
Codec ID : A_MPEG/L2
Codec ID/Hint : MP2
Duration : 1h 44mn
Bit rate mode : Constant
Bit rate : 192 Kbps
Channel(s) : 2 channels
Sampling rate : 48.0 KHz
Stream size : 144 MiB (2%)
Title : A.Family.Thing.1996_MP2_2ch_rus_dvo_NTV+
Language : Russian
Audio #2
ID : 3
Format : AC-3
Format/Info : Audio Coding 3
Mode extension : CM (complete main)
Codec ID : A_AC3
Duration : 1h 44mn
Bit rate mode : Constant
Bit rate : 448 Kbps
Channel(s) : 6 channels
Channel positions : Front: L C R, Side: L R, LFE
Sampling rate : 48.0 KHz
Bit depth : 16 bits
Stream size : 336 MiB (5%)
Title : A.Family.Thing.1996_AC3_6ch_original eng
Text
ID : 4
Format : UTF-8
Codec ID : S_TEXT/UTF8
Codec ID/Info : UTF-8 Plain Text
Title : A.Family.Thing.1996_subtitle eng
Скриншот с названием фильма Скриншоты
Скачать

Скачать торрент!

Как скачивать? · Что такое торрент? · Рейтинг и ограничения

Сайт не распространяет и не хранит электронные версии произведений, а лишь предоставляет доступ к создаваемому пользователями каталогу ссылок на торрент-файлы, которые содержат только списки хеш-сумм

[Профиль] [ЛС]
Показать сообщения:    
Ответить на тему

Текущее время: Сегодня 08:25

Часовой пояс: GMT + 4



Вы не можете начинать темы
Вы не можете отвечать на сообщения
Вы не можете редактировать свои сообщения
Вы не можете удалять свои сообщения
Вы не можете голосовать в опросах
Вы не можете прикреплять файлы к сообщениям
Вы не можете скачивать файлы