Риддик / Riddick (Дэвид Туи / David Twohy) [2013, США, Великобритания, фантастика, боевик, триллер, BDRip 720p] [Extended Cut] Dub + 2x AVO (Гаврилов, Володарский) + VO (Есарев) + Original Eng + sub (Rus, Eng)

Ответить на тему
 
Автор Сообщение

user ®

Стаж: 7 лет 7 месяцев

Сообщений: 20008

Пост Пост: #1 от 16-Май-2014 21:10

[Цитировать]

Риддик / Riddick [Extended Cut]- Год выпуска: 2013
Выпущено: США, Великобритания
Жанр: фантастика, боевик, триллер
Продолжительность: 02:06:47
Перевод: Профессиональный (дублированный) со вставками оригинала на Extended-эпизоды
+ Одноголосый закадровый Д.Есарев
+ Авторский одноголосый А.Гаврилов
+ Авторский одноголосый Л.Володарский
Оригинальная звуковая дорожка: English
Субтитры: Russian (forced), Russian (Воронин), Russian, English-Режиссер: Дэвид Туи / David Twohy
В ролях: Вин Дизель, Хорди Молья, Мэтью Нэйбл, Кэти Сакхофф, Дэйв Батиста, Букем Вудбайн, Рауль Трухильо, Конрад Пла, Дэнни Бланко, Карл Урбан
О фильме: Преданный своими и брошенный умирать на пустынной планете, Риддик сражается с хищниками за жизнь и становится сильнее и опаснее себя прежнего. Открывшие на него охоту галактические наемники оказываются пешками в грандиозном плане отмщения. С врагами, возникающими на его пути тогда, когда это нужно самому Риддику, он начинает поход во имя мести, чтобы в конечном счете вернуться на родную Фурию и спасти ее от уничтожения.
CtrlHD!
Релиз: by Skazhutin
Формат: MKV
Видео: 1280x534 at 23.976 fps, x264@L4.1, ~8708 kbps avg
Аудио #1: Russian: 48 kHz, AC3 5.1, 384 kbps |Дубляж, +Субтитры|
Аудио #2: Russian: 48 kHz, DTS 5.1, 1509 kbps |Одноголосый закадровый, Д. Есарев|
Аудио #3: Russian: 48 kHz, DTS 5.1, 1509 kbps |Одноголосый закадровый, А. Гаврилов|
Аудио #4: Russian: 48 kHz, DTS 5.1, 1509 kbps |Одноголосый закадровый, Л. Володарский|
Аудио #5: English: 48 kHz, DTS 5.1, 1509 kbps
Семпл-Source vs Encode
-
mInfo

Формат : Matroska
Версия формата : Version 4 / Version 2
Размер файла : 13,4 Гбайт
Продолжительность : 2 ч. 7 м.
Общий поток : 15,0 Мбит/сек
Название фильма : Riddick (2013) - Release for HDCLUB
Дата кодирования : UTC 2014-05-03 05:22:40
Программа кодирования : mkvmerge v6.9.1 ('Blue Panther') 64bit built on Apr 18 2014 18:23:38
Библиотека кодирования : libebml v1.3.0 + libmatroska v1.4.1
Attachment : Yes
Видео
Идентификатор : 1
Формат : AVC
Формат/Информация : Advanced Video Codec
Профиль формата : High@L4.1
Параметр CABAC формата : Да
Параметр ReFrames формата : 12 кадров
Идентификатор кодека : V_MPEG4/ISO/AVC
Продолжительность : 2 ч. 7 м.
Битрейт : 8328 Кбит/сек
Ширина : 1280 пикселей
Высота : 534 пикселя
Соотношение сторон : 2,40:1
Режим частоты кадров : Постоянный
Частота кадров : 23,976 кадра/сек
Цветовое пространство : YUV
Субдискретизация насыщенности : 4:2:0
Битовая глубина : 8 бит
Тип развёртки : Прогрессивная
Бит/(Пиксели*Кадры) : 0.508
Размер потока : 7,43 Гбайт (55%)
Заголовок : Release for HDCLUB
Библиотека кодирования : x264 core 142 r2389kMod 956c8d8
Настройки программы : cabac=1 / ref=12 / deblock=1:-3:-3 / analyse=0x3:0x113 / me=esa / subme=10 / psy=1 / fade_compensate=0.00 / psy_rd=1.10:0.00 / mixed_ref=1 / me_range=16 / chroma_me=1 / trellis=2 / 8x8dct=1 / cqm=0 / deadzone=21,11 / fast_pskip=0 / chroma_qp_offset=-2 / threads=6 / lookahead_threads=1 / sliced_threads=0 / nr=0 / decimate=0 / interlaced=0 / bluray_compat=0 / constrained_intra=0 / fgo=0 / bframes=7 / b_pyramid=2 / b_adapt=2 / b_bias=0 / direct=3 / weightb=1 / open_gop=0 / weightp=2 / keyint=250 / keyint_min=23 / scenecut=40 / intra_refresh=0 / rc_lookahead=60 / rc=crf / mbtree=0 / crf=15.0000 / qcomp=0.70 / qpmin=0 / qpmax=69 / qpstep=4 / vbv_maxrate=30000 / vbv_bufsize=20000 / crf_max=0.0 / nal_hrd=none / filler=0 / ip_ratio=1.20 / pb_ratio=1.20 / aq=1:0.80 / zones=0,1170,crf=12/2465,2704,crf=12/7293,7429,crf=8/19303,19376,crf=12/20415,20604,crf=12/21541,21666,crf=12/24114,24683,crf=12/32768,33381,crf=12/36314,37271,crf=12/58835,59041,crf=12/60776,60918,crf=12/76947,77038,crf=12/77343,77610,crf=12/77767,77792,crf=12/77902,77978,crf=12/78034,78287,crf=12/79065,79127,crf=12/79425,80494,crf=12/89442,92598,crf=12/99145,99249,crf=12/109473,110822,crf=12/148465,148558,crf=12/173502,173623,crf=12/173781,173877,crf=12/174502,174642,crf=12/174715,174795,crf=12/175070,175399,crf=12/175469,175540,crf=12
Язык : English
Default : Нет
Forced : Нет
Аудио #1
Идентификатор : 2
Формат : AC-3
Формат/Информация : Audio Coding 3
Расширение режима : CM (complete main)
Параметр Endianness формата : Big
Идентификатор кодека : A_AC3
Продолжительность : 2 ч. 7 м.
Вид битрейта : Постоянный
Битрейт : 384 Кбит/сек
Каналы : 6 каналов
Расположение каналов : Front: L C R, Side: L R, LFE
Частота : 48,0 КГц
Битовая глубина : 16 бит
Метод сжатия : С потерями
Размер потока : 351 Мбайт (3%)
Заголовок : Dub
Язык : Russian
Default : Да
Forced : Нет
Аудио #2
Идентификатор : 3
Формат : DTS
Формат/Информация : Digital Theater Systems
Режим : 16
Параметр Endianness формата : Big
Идентификатор кодека : A_DTS
Продолжительность : 2 ч. 7 м.
Вид битрейта : Постоянный
Битрейт : 1509 Кбит/сек
Каналы : 6 каналов
Расположение каналов : Front: L C R, Side: L R, LFE
Частота : 48,0 КГц
Битовая глубина : 24 бит
Метод сжатия : С потерями
Размер потока : 1,35 Гбайт (10%)
Заголовок : VO, Есарев
Язык : Russian
Default : Нет
Forced : Нет
Аудио #3
Идентификатор : 4
Формат : DTS
Формат/Информация : Digital Theater Systems
Режим : 16
Параметр Endianness формата : Big
Идентификатор кодека : A_DTS
Продолжительность : 2 ч. 7 м.
Вид битрейта : Постоянный
Битрейт : 1509 Кбит/сек
Каналы : 6 каналов
Расположение каналов : Front: L C R, Side: L R, LFE
Частота : 48,0 КГц
Битовая глубина : 24 бит
Метод сжатия : С потерями
Размер потока : 1,35 Гбайт (10%)
Заголовок : VO, Гаврилов
Язык : Russian
Default : Нет
Forced : Нет
Аудио #4
Идентификатор : 5
Формат : DTS
Формат/Информация : Digital Theater Systems
Режим : 16
Параметр Endianness формата : Big
Идентификатор кодека : A_DTS
Продолжительность : 2 ч. 7 м.
Вид битрейта : Постоянный
Битрейт : 1509 Кбит/сек
Каналы : 6 каналов
Расположение каналов : Front: L C R, Side: L R, LFE
Частота : 48,0 КГц
Битовая глубина : 24 бит
Метод сжатия : С потерями
Размер потока : 1,35 Гбайт (10%)
Заголовок : VO, Володарский
Язык : Russian
Default : Нет
Forced : Нет
Аудио #5
Идентификатор : 6
Формат : DTS
Формат/Информация : Digital Theater Systems
Режим : 16
Параметр Endianness формата : Big
Идентификатор кодека : A_DTS
Продолжительность : 2 ч. 7 м.
Вид битрейта : Постоянный
Битрейт : 1509 Кбит/сек
Каналы : 6 каналов
Расположение каналов : Front: L C R, Side: L R, LFE
Частота : 48,0 КГц
Битовая глубина : 24 бит
Метод сжатия : С потерями
Размер потока : 1,35 Гбайт (10%)
Язык : English
Default : Нет
Forced : Нет
Текст #1
Идентификатор : 7
Формат : UTF-8
Идентификатор кодека : S_TEXT/UTF8
Идентификатор кодека/Информация : UTF-8 Plain Text
Заголовок : forced
Язык : Russian
Default : Да
Forced : Нет
Текст #2
Идентификатор : 8
Формат : UTF-8
Идентификатор кодека : S_TEXT/UTF8
Идентификатор кодека/Информация : UTF-8 Plain Text
Заголовок : Воронин
Язык : Russian
Default : Нет
Forced : Нет
Текст #3
Идентификатор : 9
Формат : UTF-8
Идентификатор кодека : S_TEXT/UTF8
Идентификатор кодека/Информация : UTF-8 Plain Text
Язык : Russian
Default : Нет
Forced : Нет
Текст #4
Идентификатор : 10
Формат : UTF-8
Идентификатор кодека : S_TEXT/UTF8
Идентификатор кодека/Информация : UTF-8 Plain Text
Язык : English
Default : Нет
Forced : Нет
Текст #5
Идентификатор : 11
Формат : UTF-8
Идентификатор кодека : S_TEXT/UTF8
Идентификатор кодека/Информация : UTF-8 Plain Text
Заголовок : SDH
Язык : English
Default : Нет
Forced : Нет
Меню
00:00:00.000 : en:Chapter 1
00:05:35.418 : en:Chapter 2
00:12:10.521 : en:Chapter 3
00:23:27.364 : en:Chapter 4
00:27:56.425 : en:Chapter 5
00:32:11.221 : en:Chapter 6
00:38:03.698 : en:Chapter 7
00:44:20.283 : en:Chapter 8
00:48:40.876 : en:Chapter 9
00:56:19.668 : en:Chapter 10
01:01:16.673 : en:Chapter 11
01:07:35.093 : en:Chapter 12
01:15:23.436 : en:Chapter 13
01:19:58.836 : en:Chapter 14
01:26:51.832 : en:Chapter 15
01:31:27.107 : en:Chapter 16
01:39:32.717 : en:Chapter 17
01:45:32.701 : en:Chapter 18
01:53:45.652 : en:Chapter 19
02:02:56.160 : en:Chapter 20

-
Цитата:
* Перевод Дмитрия Есарева доступен благодаря пользователям Переулка Переводмана: ZeDOK, farivan, будулайроманов, dikii, kidman644, ARTYq, MrRose, DREADG, s.scheyko, Loki1982. Работа со звуком Переводман.
За перевод Андрея Гаврилова спасибо пользователям форума HDTracker: rydanes, kinobbk, chef&chef, Denis2251, Hattori Hanzo, Loki, _MyxAmoP_, Letyoha3, Brown15, Luka69, Gross1978, Skibichok, foxlight, GaryH, milocerd0v, -Джосс-, Pain_70, KerkP, SavineX, karantin66, ZeRoNe, GansAn, mamachucha66, v111o, kondratzx, TvarYuri, Vimann, Wolf_Larsen, furria62, dunhill200, Chistobaev, lexal, Guyver, apollion, Role, banan87, LAVR, Tio, maximus1099, hulahup, Shumway, Tehnar, Jiraya87, nimph, Видео, dark1982, shtift, carter64, vadamk, zork, feldeger, sawyer4, Андрей, AndreyTula, rammzez, Consul, Диммон, therox, saenwert, Schmulke, Ace34, olegsoleg, spacenoise, anvic, Slimka, DrCrane, Gangster, Floydman, Iron Man, TOMAN, denis_mgn_1987, DB73. Наложение голоса - Rammzez (форум e180)
За перевод Леонида Володарского спасибо пользователям форума e180: Nadoelo, RockFM, пуля, vik19662007, kinobbk, User, zeleniy, SavineX78, Nick, Wolf_Larsen, ZeDOK, luka69, Iceman, Daniel Rock, Эдуард, dir, Kastro, bla_, Диммон, GansAn, Hattori Hanzo, uchitel538, AlBeOne, carnivale, 48ronin, pupsik197, furria62, Vladimir, idalgo, _shurik_, Tio, Savely, videolover, Gouzer, tide, Andrey_Tula, denis_mgn_1987, masta, lotasfan, rammzez, pestel, Petro0999, Gross1978, MyxAmoP, vavana, v1111o.
Скачать

Скачать торрент!

Как скачивать? · Что такое торрент? · Рейтинг и ограничения

Сайт не распространяет и не хранит электронные версии произведений, а лишь предоставляет доступ к создаваемому пользователями каталогу ссылок на торрент-файлы, которые содержат только списки хеш-сумм

[Профиль] [ЛС]
Показать сообщения:    
Ответить на тему

Текущее время: Сегодня 09:49

Часовой пояс: GMT + 4



Вы не можете начинать темы
Вы не можете отвечать на сообщения
Вы не можете редактировать свои сообщения
Вы не можете удалять свои сообщения
Вы не можете голосовать в опросах
Вы не можете прикреплять файлы к сообщениям
Вы не можете скачивать файлы