Однажды в Шанхае / Once Upon a Time in Shanghai (Чхин Пхо Вон / Ching-Po Wong) [2014, Гонконг, криминал, боевые искуства, WEB-DLRip] DVO (Ворон и Sandairina)

Ответить на тему
 
Автор Сообщение

user ®

Стаж: 13 лет

Сообщений: 15071

Пост Пост: #1 от 16-Май-2014 00:25

[Цитировать]

Однажды в Шанхае / Once Upon a Time in Shanghai
Страна: Гонконг
Жанр: криминал, боевые искуства
Год выпуска: 2014
Продолжительность: 01:31:07
Перевод: Любительский (двухголосый закадровый) Ворон и Sandairina
Cубтитры: китайские (хардсаб)
Оригинальная аудиодорожка: нет
Режиссер: Чхин Пхо Вон / Ching-Po Wong
В ролях: Саммо Хунг Кам-Бо, Филип Нг, Энди Он, Мишель Ху, Чен Куан Тай, Чжунчжи Мао, Цзян Люся
Описание: 1930 год. Деревенский парнишка Ма Юн Чжень, обладатель убойного кулака, отправляется покорять Шанхай, пообещав матери не ввязываться в драки. В Шанхае Ма Юн Чжень встречает новых друзей и любовь. В такое непростое для города время Ма Юн Чжену придется нарушить обещание данное матери, чтобы спасти себя и близких в борьбе против городской банды, готовой пойти на все ради собственной выгоды и влияния.
Сэмпл: http://multi-up.com/974011
Качество видео: WEB-DLRip (исходник WEB-DL 720р)
Формат видео: AVI
Видео: XviD, 1006 kbps, 656 х 272 pixels, 25 fps
Аудио: MP3, 128 Kbps, 2 channels, 48.0 KHz

MediaInfo
General
Complete name : D:\kirovtorrent\Once.Upon.a.Time.in.Shanghai.2014.WEB-DLRip.745mb.avi
Format : AVI
Format/Info : Audio Video Interleave
File size : 745 MiB
Duration : 1h 31mn
Overall bit rate : 1 144 Kbps
Writing application : VirtualDubMod 1.5.10.3 | www.virtualdub-fr.org || (build 2550/release)
Writing library : VirtualDubMod build 2550/release
Video
ID : 0
Format : MPEG-4 Visual
Format profile : Advanced Simple@L5
Format settings, BVOP : Yes
Format settings, QPel : No
Format settings, GMC : No warppoints
Format settings, Matrix : Default (MPEG)
Codec ID : XVID
Codec ID/Hint : XviD
Duration : 1h 31mn
Bit rate : 1 006 Kbps
Width : 656 pixels
Height : 272 pixels
Display aspect ratio : 2.40:1
Frame rate : 25.000 fps
Color space : YUV
Chroma subsampling : 4:2:0
Bit depth : 8 bits
Scan type : Progressive
Compression mode : Lossy
Bits/(Pixel*Frame) : 0.225
Stream size : 656 MiB (88%)
Writing library : XviD 73
Audio
ID : 1
Format : MPEG Audio
Format version : Version 1
Format profile : Layer 3
Codec ID : 55
Codec ID/Hint : MP3
Duration : 1h 31mn
Bit rate mode : Constant
Bit rate : 128 Kbps
Channel(s) : 2 channels
Sampling rate : 48.0 KHz
Compression mode : Lossy
Stream size : 83.4 MiB (11%)
Alignment : Aligned on interleaves
Interleave, duration : 40 ms (1.00 video frame)
Interleave, preload duration : 504 ms
Writing library : LAME3.99r
Encoding settings : -m s -V 4 -q 2 -lowpass 17 -b 128
Скриншот c названием фильма Скриншоты
Скачать

Скачать торрент! Однажды в Шанхае / Once Upon a Time in Shanghai (Чхин Пхо Вон / Ching-Po Wong) [2014, Гонконг, криминал, боевые искуства, WEB-DLRip] DVO (Ворон и Sandairina)

Как скачивать? · Что такое торрент? · Рейтинг и ограничения

Сайт не распространяет и не хранит электронные версии произведений, а лишь предоставляет доступ к создаваемому пользователями каталогу ссылок на торрент-файлы, которые содержат только списки хеш-сумм

[Профиль] [ЛС]
Показать сообщения:    
Ответить на тему

Текущее время: Сегодня 21:18

Часовой пояс: GMT + 4



Вы не можете начинать темы
Вы не можете отвечать на сообщения
Вы не можете редактировать свои сообщения
Вы не можете удалять свои сообщения
Вы не можете голосовать в опросах
Вы не можете прикреплять файлы к сообщениям
Вы не можете скачивать файлы