Starперцы / Last Vegas (Джон Тёртелтауб / Jon Turteltaub) [2013, США, комедия, драма, BDRip 720p] Dub + MVO (Baibako) + 2x AVO (Гаврилов, Немахов) + Original (Eng) + Subs (Rus, Eng)

Ответить на тему
 
Автор Сообщение

user ®

Стаж: 7 лет 7 месяцев

Сообщений: 20008

Пост Пост: #1 от 16-Май-2014 00:25

[Цитировать]

Starперцы / Last Vegas

-
-Страна: США
Студия: CBS Films, Gidden Media, Good Universe, Outlaw Sinema
Жанр: комедия, драма
Год выпуска: 2013
Продолжительность: 01:45:25--Перевод 1: Профессиональный (дублированный) Blu-ray
Перевод 2: Любительский (многоголосый закадровый) Baibako
Перевод 3: Авторский (одноголосый закадровый) А. Гаврилов
Перевод 4: Авторский (одноголосый закадровый) Ю. Немахов
Cубтитры: русские, английские (full, SDH, SDH Commentary)
Оригинальная аудиодорожка: английский--Режиссер: Джон Тёртелтауб / Jon Turteltaub
В ролях: Майкл Дуглас, Роберт Де Ниро, Морган Фриман, Кевин Клайн, Мэри Стинберген, Джерри Феррара, Романи Малко, Роджер Барт, Джоанна Глисон, Майкл Или--Описание: Билли, Пэдди, Арчи и Сэм дружат больше полувека. И когда убежденный холостяк Билли наконец-то делает предложение своей юной подружке, великолепная четверка отправляется в Лас-Вегас, чтобы скинуть с себя груз прожитого и зажечь как в последний раз. Великовозрастные гуляки и не подозревают, как за десятилетия эволюционировал Город Грехов…--imdb | kinopoisk | Сэмпл--Тип релиза: BDRip 720p [Last Vegas 2013 720p BluRay DTS x264-NTb]
Контейнер: MKV
Видео: MPEG-4 AVC / 8923 kbps / 1280x534 / 23,976 fps / 2,40:1 / High Profile 4.1
Аудио 1: Russian AC3 / 5.1 / 48 kHz / 640 kbps / 16 bits |Dub, Blu-ray|
Аудио 2: Russian DTS / 5.1 / 48 kHz / 1509 kbps / 24 bits |Baibako| отдельно
Аудио 3: Russian DTS / 5.1 / 48 kHz / 1509 kbps / 24 bits |А. Гаврилов| отдельно
Аудио 4: Russian DTS / 5.1 / 48 kHz / 1509 kbps / 24 bits |Ю. Немахов| отдельно
Аудио 5: English AC3 / 5.1 / 48 kHz / 640 kbps / 16 bits |original|
Аудио 6: English AC3 / 2.0 / 48 kHz / 192 kbps / 16 bits / DN -4dB / Dolby Surround |Descriptive|
Аудио 7: English AC3 / 2.0 / 48 kHz / 192 kbps / 16 bits / DN -4dB |Commentary|
Формат субтитров: softsub [SRT]

MediaInfo
Общее
Уникальный идентификатор                 : 207930948403497628851411794890102640214 (0x9C6E0B42E5912916BDBDB6D0ABCF8E56)
Полное имя                               : G:\HD\Starперцы.2013.BDRip.(720p)\Starперцы.2013.BDRip.(720p).mkv
Формат                                   : Matroska
Версия формата                           : Version 4 / Version 2
Размер файла                             : 7,95 Гбайт
Продолжительность                        : 1 ч. 45 м.
Общий поток                              : 10,8 Мбит/сек
Дата кодирования                         : UTC 2014-05-14 16:32:06
Программа кодирования                    : mkvmerge v6.9.1 ('Blue Panther') 64bit built on Apr 18 2014 18:23:38
Библиотека кодирования                   : libebml v1.3.0 + libmatroska v1.4.1
Attachment                               : Yes
Видео
Идентификатор                            : 1
Формат                                   : AVC
Формат/Информация                        : Advanced Video Codec
Профиль формата                          : High@L4.1
Параметр CABAC формата                   : Да
Параметр ReFrames формата                : 12 кадров
Идентификатор кодека                     : V_MPEG4/ISO/AVC
Продолжительность                        : 1 ч. 45 м.
Битрейт                                  : 8923 Кбит/сек
Ширина                                   : 1280 пикселей
Высота                                   : 534 пикселя
Соотношение сторон                       : 2,40:1
Режим частоты кадров                     : Постоянный
Частота кадров                           : 23,976 кадра/сек
Цветовое пространство                    : YUV
Субдискретизация насыщенности            : 4:2:0
Битовая глубина                          : 8 бит
Тип развёртки                            : Прогрессивная
Бит/(Пиксели*Кадры)                      : 0.544
Размер потока                            : 6,57 Гбайт (83%)
Заголовок                                : Last Vegas 2013 720p BluRay DTS x264-NTb
Библиотека кодирования                   : x264 core 142 r2389kMod 956c8d8
Настройки программы                      : cabac=1 / ref=12 / deblock=1:-3:-3 / analyse=0x3:0x133 / me=umh / subme=10 / psy=1 / fade_compensate=0.00 / psy_rd=1.06:0.00 / mixed_ref=1 / me_range=48 / chroma_me=1 / trellis=2 / 8x8dct=1 / cqm=0 / deadzone=21,11 / fast_pskip=1 / chroma_qp_offset=-2 / threads=16 / lookahead_threads=2 / sliced_threads=0 / nr=0 / decimate=1 / interlaced=0 / bluray_compat=0 / constrained_intra=0 / fgo=0 / bframes=9 / b_pyramid=2 / b_adapt=2 / b_bias=0 / direct=3 / weightb=1 / open_gop=0 / weightp=2 / keyint=250 / keyint_min=23 / scenecut=40 / intra_refresh=0 / rc_lookahead=250 / rc=crf / mbtree=0 / crf=16.0000 / qcomp=0.80 / qpmin=0 / qpmax=69 / qpstep=4 / vbv_maxrate=50000 / vbv_bufsize=62500 / crf_max=0.0 / nal_hrd=none / filler=0 / ip_ratio=1.20 / pb_ratio=1.10 / aq=1:0.65
Язык                                     : English
Default                                  : Да
Forced                                   : Нет
Аудио #1
Идентификатор                            : 2
Формат                                   : AC-3
Формат/Информация                        : Audio Coding 3
Расширение режима                        : CM (complete main)
Параметр Endianness формата              : Big
Идентификатор кодека                     : A_AC3
Продолжительность                        : 1 ч. 45 м.
Вид битрейта                             : Постоянный
Битрейт                                  : 640 Кбит/сек
Каналы                                   : 6 каналов
Расположение каналов                     : Front: L C R, Side: L R, LFE
Частота                                  : 48,0 КГц
Битовая глубина                          : 16 бит
Метод сжатия                             : С потерями
Размер потока                            : 483 Мбайт (6%)
Заголовок                                : Dub, Blu-ray
Язык                                     : Russian
Default                                  : Да
Forced                                   : Нет
Аудио #2
Идентификатор                            : 3
Формат                                   : AC-3
Формат/Информация                        : Audio Coding 3
Расширение режима                        : CM (complete main)
Параметр Endianness формата              : Big
Идентификатор кодека                     : A_AC3
Продолжительность                        : 1 ч. 45 м.
Вид битрейта                             : Постоянный
Битрейт                                  : 640 Кбит/сек
Каналы                                   : 6 каналов
Расположение каналов                     : Front: L C R, Side: L R, LFE
Частота                                  : 48,0 КГц
Битовая глубина                          : 16 бит
Метод сжатия                             : С потерями
Размер потока                            : 483 Мбайт (6%)
Язык                                     : English
Default                                  : Нет
Forced                                   : Нет
Аудио #3
Идентификатор                            : 4
Формат                                   : AC-3
Формат/Информация                        : Audio Coding 3
Профиль формата                          : Dolby Digital
Расширение режима                        : CM (complete main)
Параметр Endianness формата              : Big
Идентификатор кодека                     : A_AC3
Продолжительность                        : 1 ч. 45 м.
Вид битрейта                             : Постоянный
Битрейт                                  : 192 Кбит/сек
Каналы                                   : 2 канала
Расположение каналов                     : Front: L R
Частота                                  : 48,0 КГц
Битовая глубина                          : 16 бит
Метод сжатия                             : С потерями
Размер потока                            : 145 Мбайт (2%)
Заголовок                                : Descriptive
Язык                                     : English
Default                                  : Нет
Forced                                   : Нет
Аудио #4
Идентификатор                            : 5
Формат                                   : AC-3
Формат/Информация                        : Audio Coding 3
Расширение режима                        : CM (complete main)
Параметр Endianness формата              : Big
Идентификатор кодека                     : A_AC3
Продолжительность                        : 1 ч. 45 м.
Вид битрейта                             : Постоянный
Битрейт                                  : 192 Кбит/сек
Каналы                                   : 2 канала
Расположение каналов                     : Front: L R
Частота                                  : 48,0 КГц
Битовая глубина                          : 16 бит
Метод сжатия                             : С потерями
Размер потока                            : 145 Мбайт (2%)
Заголовок                                : Commentary
Язык                                     : English
Default                                  : Нет
Forced                                   : Нет
Текст #1
Идентификатор                            : 6
Формат                                   : UTF-8
Идентификатор кодека                     : S_TEXT/UTF8
Идентификатор кодека/Информация          : UTF-8 Plain Text
Язык                                     : Russian
Default                                  : Нет
Forced                                   : Нет
Текст #2
Идентификатор                            : 7
Формат                                   : UTF-8
Идентификатор кодека                     : S_TEXT/UTF8
Идентификатор кодека/Информация          : UTF-8 Plain Text
Заголовок                                : full
Язык                                     : English
Default                                  : Нет
Forced                                   : Нет
Текст #3
Идентификатор                            : 8
Формат                                   : UTF-8
Идентификатор кодека                     : S_TEXT/UTF8
Идентификатор кодека/Информация          : UTF-8 Plain Text
Заголовок                                : SDH
Язык                                     : English
Default                                  : Нет
Forced                                   : Нет
Текст #4
Идентификатор                            : 9
Формат                                   : UTF-8
Идентификатор кодека                     : S_TEXT/UTF8
Идентификатор кодека/Информация          : UTF-8 Plain Text
Заголовок                                : SDH Commentary
Язык                                     : English
Default                                  : Нет
Forced                                   : Нет
Меню
00:00:00.000                             : :Chapter 01
00:10:49.190                             : :Chapter 02
00:18:05.084                             : :Chapter 03
00:21:24.700                             : :Chapter 04
00:25:12.302                             : :Chapter 05
00:31:01.067                             : :Chapter 06
00:36:27.018                             : :Chapter 07
00:41:53.886                             : :Chapter 08
00:46:14.354                             : :Chapter 09
00:54:12.457                             : :Chapter 10
00:59:52.797                             : :Chapter 11
01:05:47.276                             : :Chapter 12
01:10:35.731                             : :Chapter 13
01:14:57.034                             : :Chapter 14
01:18:30.414                             : :Chapter 15
01:21:47.110                             : :Chapter 16
01:26:33.938                             : :Chapter 17
01:32:27.708                             : :Chapter 18
01:37:18.999                             : :Chapter 19
01:41:14.651                             : :Chapter 20
Скриншоты Дополнительно
Цитата:
За дубляж спасибо - hdclub
Цитата:
За MVO - Baibako спасибо - bluebird-hd
За работу над дорожкой спасибо АДмин
Цитата:
За перевода А. Гаврилова спасибо пользователям Клуба переводов новинок и классики у Гаврилова.
За работу над дорожкой спасибо KpucTo161
Цитата:
За перевода Ю. Немахова спасибо пользователям форума е180: oleg-k, jorn2, MyxAmoP, Эдуард, Loki1982, Gennady 2013, DMX-92, vik19662007, tide, foxlight, Iceman, Savely, luka69, xerman13, zeleniy, olegsoleg, carnivale, Chistobaev, kiruxa-k, Daniel Rock, SavineX78 , ARTYq, Марлон.
За работу над дорожкой спасибо Bloodymetal.
Last Vegas 2013 720p BluRay DTS x264-NTb
Last.Vegas.2013.720p.BluRay.DTS.x264-NTb
General Information
Source   : Last Vegas 2013 1080p EUR Blu-ray AVC DTS-HD MA 5.1-GroupHDS
Container  : Matroska
Length   : 1h 45mn
Chapters  : Included
Codec   : AVC
Video Bitrate  : 8 954 Kbps
Format Profile Level : High@L4.1
Resolution  : 1280 x 534 pixels
Framerate  : 23.976 fps
Audio Stream 1  : English AC3 6 channels @ 1509 Kbps
Audio Stream 1  : English AC3 2 channels @ 192 Kbps (Commentary)
Subtitles  : Brazilian, Chinese, Croatian, Czech, Danish, Dutch, English,
                         English SDH, English SDH Commentary, Finnish, French,
                         French forced, German, German forced,  Hungarian,
                         Icelandic, Italian, Italian Commentary, Italian forced,
                         Japanese, Norwegian, Portuguese, Romanian, Slovenian,
                         Spanish, Spanish Commentary, Spanish forced, Swedish  (UTF-8) (ThX Corleone)
Greetings  : All NTb Crew, Nick007, 9mm, MM and rose.
Notes
[*] Sorry i lost the encoding log for this :/
[*] New Encode from better sauce
Source vs Encode


Скачать

Скачать торрент!

Как скачивать? · Что такое торрент? · Рейтинг и ограничения

Сайт не распространяет и не хранит электронные версии произведений, а лишь предоставляет доступ к создаваемому пользователями каталогу ссылок на торрент-файлы, которые содержат только списки хеш-сумм

[Профиль] [ЛС]
Показать сообщения:    
Ответить на тему

Текущее время: Сегодня 12:25

Часовой пояс: GMT + 4



Вы не можете начинать темы
Вы не можете отвечать на сообщения
Вы не можете редактировать свои сообщения
Вы не можете удалять свои сообщения
Вы не можете голосовать в опросах
Вы не можете прикреплять файлы к сообщениям
Вы не можете скачивать файлы