Испытание человека / Proof Of The Man (Юня Сато / Junya Sato) [1977, Япония, США, драма, детектив, криминал, DVDRip] VO (Andi) + Sub Rus

Ответить на тему
 
Автор Сообщение

user ®

Стаж: 11 лет

Сообщений: 15151

Пост Пост: #1 от 15-Май-2014 16:20

[Цитировать]

ИСПЫТАНИЕ ЧЕЛОВЕКА / Proof Of The Man
Страна: Япония, США
Жанр: драма, детектив, криминал
Год выпуска: 1977
Продолжительность: 02:12:46
Перевод: Одноголосый закадровый Andi
Cубтитры: русские
Оригинальная аудиодорожка: нет
Режиссер: Юня Сато/Junya Sato
В ролях: George Kennedy ... Ken Shuftan
Mariko Okada ... Kyoko Yasugi
Yusaku Matsuda ... Detective Munesue
Broderick Crawford ... Detective O'Brien
Joe Yamanaka ... Jonny Hayward
Junzaburo Ban ... Hot Spring Inn's owner
Takeo Chii ... Detective Kusaba
Kinji Fukasaku ... Shibue, Assistant Lieutenant
Hajime Hana ... Detective Yokowata
Bunjaku Han ... Naomi
Kouichi Iwaki ... Kyohei Gun
Rick Jason ... Lionel Adams
Robert Earl Jones ... Wilshire Hayward
Isao Natsuyagi ... Takashi Niimi
Keiko Takeshita ... Shizue Nakayama
Описание: В одном из отелей Токио происходит убийство американца. Расследование преступления приводит детектива Мунесуи в Нью-Йорк, где к нему присоединяется детектив Шафтэн. Детективная драма разворачивается по обе стороны океана, нити которой тянутся со времен послевоенной Японии.
Доп. информация: ПЕРЕВОД субтитров и СИНХРОНИЗАЦИЯ - Levelheaded.
Сэмпл: http://multi-up.com/973847
Качество видео: DVDRip
Формат видео: AVI
Видео: CD1- 640x352 (1.82:1), 23.976 fps, XviD Final 1.0.3 (build 37) ~1259 kbps avg, 0.23 bit/pixel
CD2- 640x352 (1.82:1), 23.976 fps, XviD Final 1.0.3 (build 37) ~1132 kbps avg, 0.21 bit/pixel
Аудио: обе дорожки - 48 kHz, AC 3, 2 ch, ~128 kbps avg
MediaInfo
бщее
Полное имя : L:\Proof Of The Man (VO Andi)\Proof Of The Man-CD1.avi
Формат : AVI
Формат/Информация : Audio Video Interleave
Размер файла : 635 Мбайт
Продолжительность : 1 ч. 3 м.
Общий поток : 1399 Кбит/сек
Программа кодирования : VirtualDubMod 1.5.10.2 (build 2540/release)
Библиотека кодирования : VirtualDubMod build 2540/release
Видео
Идентификатор : 0
Формат : MPEG-4 Visual
Профиль формата : Advanced Simple@L5
Параметр BVOP формата : 2
Параметр QPel формата : Да
Параметр GMC формата : Без точки перехода
Параметр матрицы формата : Выборочная
Идентификатор кодека : XVID
Идентификатор кодека/Подсказка : XviD
Продолжительность : 1 ч. 3 м.
Битрейт : 1262 Кбит/сек
Ширина : 640 пикселей
Высота : 352 пикселя
Соотношение сторон : 16:9
Частота кадров : 23,976 кадра/сек
Цветовое пространство : YUV
Субдискретизация насыщенности : 4:2:0
Битовая глубина : 8 бит
Тип развёртки : Прогрессивная
Метод сжатия : С потерями
Бит/(Пиксели*Кадры) : 0.234
Размер потока : 573 Мбайт (90%)
Библиотека кодирования : XviD 1.0.3 (UTC 2004-12-20)
Аудио
Идентификатор : 1
Формат : AC-3
Формат/Информация : Audio Coding 3
Расширение режима : CM (complete main)
Параметр Endianness формата : Big
Идентификатор кодека : 2000
Продолжительность : 1 ч. 3 м.
Вид битрейта : Постоянный
Битрейт : 128 Кбит/сек
Каналы : 2 канала
Расположение каналов : Front: L R
Частота : 48,0 КГц
Битовая глубина : 16 бит
Метод сжатия : С потерями
Размер потока : 58,1 Мбайт (9%)
Выравнивание : Разделение по промежуткам
Продолжительность промежутка : 42 мс. (1,00 видеокадр)
Время предзагрузки промежутка : 500 мс.
Скриншот c названием фильма Скриншоты
Скачать

Скачать торрент! Испытание человека / Proof Of The Man (Юня Сато / Junya Sato) [1977, Япония, США, драма, детектив, криминал, DVDRip] VO (Andi) + Sub Rus

Как скачивать? · Что такое торрент? · Рейтинг и ограничения

Сайт не распространяет и не хранит электронные версии произведений, а лишь предоставляет доступ к создаваемому пользователями каталогу ссылок на торрент-файлы, которые содержат только списки хеш-сумм

[Профиль] [ЛС]
Показать сообщения:    
Ответить на тему

Текущее время: Сегодня 16:23

Часовой пояс: GMT + 4



Вы не можете начинать темы
Вы не можете отвечать на сообщения
Вы не можете редактировать свои сообщения
Вы не можете удалять свои сообщения
Вы не можете голосовать в опросах
Вы не можете прикреплять файлы к сообщениям
Вы не можете скачивать файлы