Джек Райан: Теория хаоса / Jack Ryan: Shadow Recruit (Кеннет Брэна / Kenneth Branagh) [2014, США, Россия, Боевик, триллер, драма, BDRip-AVC] Dub (iTunes) + Sub Eng + Original Eng

Ответить на тему
 
Автор Сообщение

user ®

Стаж: 7 лет 7 месяцев

Сообщений: 20008

Пост Пост: #1 от 15-Май-2014 16:20

[Цитировать]

Джек Райан: Теория хаоса / Jack Ryan: Shadow Recruit«Главное оружие – интеллект»-
  • Страна: США , Россия
    Жанр: Боевик, триллер, драма
    Год выпуска: 2014
    Продолжительность: 01:45:32-
  • Перевод: Профессиональный (дублированный) (iTunes)
    Cубтитры: английские
    Оригинальная аудиодорожка: английский
    Режиссер: Кеннет Брэна / Kenneth Branagh-
  • В ролях: Крис Пайн, Кира Найтли, Кевин Костнер, Кеннет Брэна, Алек Утгофф, Джемма Чан, Петер Андерссон, Елена Великанова, Нонсо Анози, Колм Фиор.-
  • Являющийся финансовым аналитиком Райан переезжает в Москву для работы на некоего миллиардера. И именно этот нувориш обставит дела таким образом, чтобы на Райна пали все подозрения в организации террористического сговора с целью обрушить экономику США. И Джеку не остается ничего иного, как попытаться одновременно очистить свое имя, обезвредить заговор и спасти жену, взятую миллиардером в заложники.-
  • Доп. информация: |КиноПоиск|IMDB|Сэмпл|-Качество видео: BDRip-AVC
    Формат видео: MKV
    Видео кодек: H.264
    Аудио кодек: AC3-Видео: 1032x432 (2,40:1), 23,976 fps, 2061 Кbps, 0.193 bit/pixel
    Аудио 1: 48 kHz, AC3 Dolby Digital, 3/2 (L,C,R,l,r) + LFE ch, 384.00 | RUS
    Аудио 2: 48 kHz, AC3 Dolby Digital, 3/2 (L,C,R,l,r) + LFE ch, 448.00 | ENG
MediaInfo
Общее
Уникальный идентификатор : 183884414112184573078581648768349351236 (0x8A56D995F60F7119A6A546562219AD44)
Полное имя : Dzhek.Rayn.Teoriya.Haosa.2014.DUAL.BDRip.х264.-HELLYWOOD.mkv
Формат : Matroska
Версия формата : Version 4 / Version 2
Размер файла : 2,13 Гбайт
Длительность : 1 ч. 45 м.
Общий поток : 2894 Кбит/сек
Название фильма : HELLYWOOD - rip by potroks
Дата кодирования : UTC 2014-05-14 03:17:25
Программа кодирования : mkvmerge v5.9.0 ('On The Loose') built on Dec 15 2012 16:39:58
Библиотека кодирования : libebml v1.3.0 + libmatroska v1.4.0
Видео
Идентификатор : 1
Формат : AVC
Формат/Информация : Advanced Video Кодек
Профиль формата : High@L4.1
Параметр CABAC формата : Да
Параметр ReFrames формата : 10 кадров
Идентификатор кодека : V_MPEG4/ISO/AVC
Длительность : 1 ч. 45 м.
Битрейт : 2061 Кбит/сек
Ширина : 1032 пикселя
Высота : 432 пикселя
Соотношение сторон : 2,40:1
Режим частоты кадров : Постоянный
Частота кадров : 23,976 кадра/сек
Цветовое пространство : YUV
Субдискретизация насыщенности : 4:2:0
Битовая глубина : 8 бит
Тип развёртки : Прогрессивная
Бит/(Пиксели*Кадры) : 0.193
Размер потока : 1,48 Гбайт (69%)
Заголовок : Jack Ryan: Shadow Recruit
Библиотека кодирования : x264 core 130 r2273 b3065e6
Настройки программы : cabac=1 / ref=10 / deblock=1:-3:-2 / analyse=0x3:0x133 / me=umh / subme=11 / psy=1 / psy_rd=0.98:0.02 / mixed_ref=1 / me_range=32 / chroma_me=1 / trellis=2 / 8x8dct=1 / cqm=0 / deadzone=21,11 / fast_pskip=0 / chroma_qp_offset=-3 / threads=9 / lookahead_threads=6 / sliced_threads=0 / nr=0 / decimate=0 / interlaced=0 / bluray_compat=0 / constrained_intra=0 / bframes=11 / b_pyramid=2 / b_adapt=2 / b_bias=0 / direct=3 / weightb=1 / open_gop=0 / weightp=2 / keyint=250 / keyint_min=23 / scenecut=40 / intra_refresh=0 / rc_lookahead=60 / rc=2pass / mbtree=0 / bitrate=2061 / ratetol=1.0 / qcomp=0.70 / qpmin=0 / qpmax=69 / qpstep=4 / cplxblur=20.0 / qblur=0.5 / vbv_maxrate=20000 / vbv_bufsize=20000 / nal_hrd=none / ip_ratio=1.35 / pb_ratio=1.25 / aq=1:0.90
Язык : English
Default : Да
Forced : Нет
Аудио #1
Идентификатор : 2
Формат : AC-3
Формат/Информация : Audio Coding 3
Расширение режима : CM (complete main)
Параметр Endianness формата : Big
Идентификатор кодека : A_AC3
Длительность : 1 ч. 45 м.
Вид битрейта : Постоянный
Битрейт : 384 Кбит/сек
Каналы : 6 каналов
Расположение каналов : Front: L C R, Side: L R, LFE
Частота : 48,0 КГц
Битовая глубина : 16 бит
Метод сжатия : С потерями
Размер потока : 290 Мбайт (13%)
Заголовок : Dub | DD 5.1 @ 384 kbps - iTunes
Язык : Russian
Default : Да
Forced : Нет
Аудио #2
Идентификатор : 3
Формат : AC-3
Формат/Информация : Audio Coding 3
Расширение режима : CM (complete main)
Параметр Endianness формата : Big
Идентификатор кодека : A_AC3
Длительность : 1 ч. 45 м.
Вид битрейта : Постоянный
Битрейт : 448 Кбит/сек
Каналы : 6 каналов
Расположение каналов : Front: L C R, Side: L R, LFE
Частота : 48,0 КГц
Битовая глубина : 16 бит
Метод сжатия : С потерями
Размер потока : 338 Мбайт (15%)
Заголовок : Original | DD 5.1 @ 448 kbps
Язык : English
Default : Нет
Forced : Нет
Текст #1
Идентификатор : 4
Формат : UTF-8
Идентификатор кодека : S_TEXT/UTF8
Идентификатор кодека/Информация : UTF-8 Plain Text
Заголовок : Full
Язык : English
Default : Нет
Forced : Нет
Текст #2
Идентификатор : 5
Формат : UTF-8
Идентификатор кодека : S_TEXT/UTF8
Идентификатор кодека/Информация : UTF-8 Plain Text
Заголовок : SDH
Язык : English
Default : Нет
Forced : Нет
Текст #3
Идентификатор : 6
Формат : UTF-8
Идентификатор кодека : S_TEXT/UTF8
Идентификатор кодека/Информация : UTF-8 Plain Text
Заголовок : SDH-Colored
Язык : English
Default : Нет
Forced : Нет
Меню
00:05:45.470 : en:(01)00:05:45:470
00:12:02.471 : en:(02)00:12:02:471
00:18:11.006 : en:(03)00:18:11:006
00:23:38.792 : en:(04)00:23:38:792
00:31:19.794 : en:(05)00:31:19:794
00:40:26.298 : en:(06)00:40:26:298
00:48:47.466 : en:(07)00:48:47:466
00:57:28.069 : en:(08)00:57:28:069
01:06:19.642 : en:(09)01:06:19:642
01:13:07.466 : en:(10)01:13:07:466
01:21:53.867 : en:(11)01:21:53:867
01:27:07.096 : en:(12)01:27:07:096
01:35:21.507 : en:(13)01:35:21:507
01:38:55.054 : en:(14)01:38:55:054
01:45:32.117 : en:(15)01:45:32:117
Скриншот c названием фильма Скриншоты Трейлер Интересные факты
  • Первоначально на место режиссёра фильма был выбран Джек Бендер. Однако он ушёл с поста режиссёра из-за занятости на других проектах.
  • Также к режиссуре фильма проявляли интерес Фернанду Мейреллиш и Сэм Рэйми.
  • Крис Пайн является четвёртым актёром, исполняющим роль Джека Райана, после Алека Болдуина, Харрисона Форда и Бена Аффлека.
  • На роль Кэти Райан рассматривались Эванджелин Лилли, Фелисити Джонс, Кейт Бекинсэйл и Джессика Бил.
  • В написании сценария участвовали Энтони Пекхэм и Стивен Заиллян, но их имена не стали указывать в титрах.
Скачать

Скачать торрент!

Как скачивать? · Что такое торрент? · Рейтинг и ограничения

Сайт не распространяет и не хранит электронные версии произведений, а лишь предоставляет доступ к создаваемому пользователями каталогу ссылок на торрент-файлы, которые содержат только списки хеш-сумм

[Профиль] [ЛС]
Показать сообщения:    
Ответить на тему

Текущее время: Сегодня 04:27

Часовой пояс: GMT + 4



Вы не можете начинать темы
Вы не можете отвечать на сообщения
Вы не можете редактировать свои сообщения
Вы не можете удалять свои сообщения
Вы не можете голосовать в опросах
Вы не можете прикреплять файлы к сообщениям
Вы не можете скачивать файлы