Не безопасно для работы / Not Safe for Work (Джо Джонстон / Joe Johnston) [2014, США, Триллер, HDRip] VO (datynet)

Ответить на тему
 
Автор Сообщение

user ®

Стаж: 7 лет 7 месяцев

Сообщений: 20008

Пост Пост: #1 от 15-Май-2014 16:20

[Цитировать]

Не безопасно для работы / Not Safe for Work
Страна: США
Жанр: Триллер
Год выпуска: 2014
Продолжительность: 01:11:10
Перевод: Одноголосый закадровый datynet
Cубтитры: нет
Оригинальная аудиодорожка: нет
Режиссер: Джо Джонстон / Joe Johnston
В ролях: Джей Джей Филд, Элоиза Мамфорд, Макс Мингелла, Майкл Глэдис, Молли Хэйгэн, Кристиан Клименсон, Брэндон Кинер, Тим Гриффин, Марина Блэк, Эме Иквуакор
Описание: Обычный офисный работник Том Миллер вынужден вступить в смертельное противостояние с безумным убийцей, оказавшимся в одном с ним здании. Том всеми силами пытается защитить работающих допоздна сотрудников своей юридической фирмы, которые не подозревают о нависшей над ними угрозой, однако вскоре выясняет, что его коллеги скрывают ужасную тайну, из-за которой тысячи жизней подвергаются опасности.
Доп. информация:
Kinopoisk
IMDB
Sample
Качество видео: HDRip
Формат видео: AVI
Видео: Xvid 720x384 25fps 1 199 Kbps
Аудио: MP3 44100Hz stereo 160kbps
MediaInfo
General
Complete name : C:\Not.Safe.for.Work.2014.HDRip.avi
Format : AVI
Format/Info : Audio Video Interleave
File size : 698 MiB
Duration : 1h 11mn
Overall bit rate : 1 372 Kbps
Movie name : RARBG.COM - Not.Safe.for.Work.2014.DVDRip.XviD.MP3-RARBG
Writing application : Lavf55.35.101
Comment : RARBG.COM - Not.Safe.for.Work.2014.DVDRip.XviD.MP3-RARBG
Video
ID : 0
Format : MPEG-4 Visual
Format profile : Simple@L5
Format settings, BVOP : No
Format settings, QPel : No
Format settings, GMC : No warppoints
Format settings, Matrix : Default (H.263)
Codec ID : XVID
Codec ID/Hint : XviD
Duration : 1h 11mn
Bit rate : 1 199 Kbps
Width : 720 pixels
Height : 384 pixels
Display aspect ratio : 1.85:1
Frame rate : 25.000 fps
Color space : YUV
Chroma subsampling : 4:2:0
Bit depth : 8 bits
Scan type : Progressive
Compression mode : Lossy
Bits/(Pixel*Frame) : 0.174
Stream size : 610 MiB (87%)
Writing library : Lavc55.55.104
Audio
ID : 1
Format : MPEG Audio
Format version : Version 1
Format profile : Layer 3
Codec ID : 55
Codec ID/Hint : MP3
Duration : 1h 11mn
Bit rate mode : Constant
Bit rate : 160 Kbps
Channel count : 2 channels
Sampling rate : 44.1 KHz
Compression mode : Lossy
Stream size : 81.4 MiB (12%)
Alignment : Aligned on interleaves
Interleave, duration : 26 ms (0.65 video frame)
Interleave, preload duration : 26 ms
Скриншот c названием фильма Скриншоты
Скачать

Скачать торрент!

Как скачивать? · Что такое торрент? · Рейтинг и ограничения

Сайт не распространяет и не хранит электронные версии произведений, а лишь предоставляет доступ к создаваемому пользователями каталогу ссылок на торрент-файлы, которые содержат только списки хеш-сумм

[Профиль] [ЛС]
Показать сообщения:    
Ответить на тему

Текущее время: Сегодня 16:11

Часовой пояс: GMT + 4



Вы не можете начинать темы
Вы не можете отвечать на сообщения
Вы не можете редактировать свои сообщения
Вы не можете удалять свои сообщения
Вы не можете голосовать в опросах
Вы не можете прикреплять файлы к сообщениям
Вы не можете скачивать файлы