Путешествие на Запад: Покорение демонов / Journey to the West: Conquering the Demons / Daai wa sai you chi Chui mo chun kei (Стивен Чоу / Stephen Chow, Дерек Квок / Chi-kin Kwok) [2013, Китай, фэнтези, HDRip-AVC] DVO [GREEN TEA]

Ответить на тему
 
Автор Сообщение

user ®

Стаж: 11 лет

Сообщений: 15151

Пост Пост: #1 от 15-Май-2014 01:35

[Цитировать]

Путешествие на Запад: Покорение демонов / Journey to the West: Conquering the Demons / Daai wa sai you chi Chui mo chun kei- -Страна: Китай
Жанр: фэнтези, комедия, приключения
Год выпуска: 2013
Продолжительность: 01:49:43-Перевод: Любительский (двухголосый закадровый) Ольга Гринтиева и Виктор Ерёменко "GREEN TEA"
Cубтитры: нет
Оригинальная аудиодорожка: нет-Режиссер: Стивен Чоу / Stephen Chow, Дерек Квок / Chi-kin Kwok
В ролях: Бо Хуанг, Чжан Вэнь, Шу Ци, Шоу Луо, Крисси Чау, Чи Чи Линг, Мин Хун Фанг, Ю Хин-Описание: Тан Санжан (Вен Чжан) – начинающий охотник на демонов, пытающийся укротить монстров не силой, а добром и прощением. Хотя он искренне верит в то, что говорит ему учитель, усмирять агрессивных чудовищ у него не получается, и если бы не другая охотница, Бай Гуцзин (Хсу Чи), предпочитающая решать все проблемы кулаками, ему пришлось бы туго. Но даже Гуцзин не может справиться с кровожадным Демоном-вепрем, который открывает на них охоту. Помочь укротить монстра может только другой демон – Царь обезьян (Хуанг Бо), вот уже пятьсот лет заточенный в пещере у подножия храма Будды…-Сэмпл-Тип релиза: HDRip-AVC
Контейнер: MKV
Видео: H264, 688x292, 24fps, 830 Kbps,
Аудио: AC3, 48000Hz, stereo, 128 Kbps-MediaInfo
Format                                   : Matroska
Format version                           : Version 4 / Version 2
File size                                : 752 MiB
Duration                                 : 1h 49mn
Overall bit rate                         : 956 Kbps
Encoded date                             : UTC 2014-05-14 16:12:06
Writing application                      : mkvmerge v6.8.0 ('Theme for Great Cities') 32bit built on Mar  2 2014 21:27:07
Writing library                          : libebml v1.3.0 + libmatroska v1.4.1
Video
ID                                       : 1
Format                                   : AVC
Format/Info                              : Advanced Video Codec
Format profile                           : High@L4.1
Format settings, CABAC                   : Yes
Format settings, ReFrames                : 12 frames
Codec ID                                 : V_MPEG4/ISO/AVC
Duration                                 : 1h 49mn
Bit rate                                 : 830 Kbps
Width                                    : 688 pixels
Height                                   : 292 pixels
Display aspect ratio                     : 16:9
Original display aspect ratio            : 2.35:1
Frame rate mode                          : Constant
Frame rate                               : 24.000 fps
Color space                              : YUV
Chroma subsampling                       : 4:2:0
Bit depth                                : 8 bits
Scan type                                : Progressive
Bits/(Pixel*Frame)                       : 0.172
Stream size                              : 636 MiB (85%)
Title                                    : ds by X-Kira
Writing library                          : x264 core 138 r2358 9e941d1
Encoding settings                        : cabac=1 / ref=12 / deblock=1:-2:-1 / analyse=0x3:0x113 / me=umh / subme=9 / psy=1 / psy_rd=1.00:0.15 / mixed_ref=1 / me_range=48 / chroma_me=1 / trellis=2 / 8x8dct=1 / cqm=0 / deadzone=21,11 / fast_pskip=1 / chroma_qp_offset=-3 / threads=6 / lookahead_threads=1 / sliced_threads=0 / nr=0 / decimate=1 / interlaced=0 / bluray_compat=0 / constrained_intra=0 / bframes=8 / b_pyramid=2 / b_adapt=2 / b_bias=0 / direct=1 / weightb=1 / open_gop=0 / weightp=2 / keyint=240 / keyint_min=23 / scenecut=40 / intra_refresh=0 / rc_lookahead=40 / rc=2pass / mbtree=1 / bitrate=830 / ratetol=1.0 / qcomp=0.60 / qpmin=10 / qpmax=51 / qpstep=4 / cplxblur=20.0 / qblur=0.5 / vbv_maxrate=14000 / vbv_bufsize=14000 / nal_hrd=none / ip_ratio=1.40 / aq=1:1.00
Language                                 : Chinese
Default                                  : Yes
Forced                                   : No
Audio
ID                                       : 2
Format                                   : AC-3
Format/Info                              : Audio Coding 3
Mode extension                           : CM (complete main)
Format settings, Endianness              : Big
Codec ID                                 : A_AC3
Duration                                 : 1h 49mn
Bit rate mode                            : Constant
Bit rate                                 : 128 Kbps
Channel(s)                               : 2 channels
Channel positions                        : Front: L R
Sampling rate                            : 48.0 KHz
Bit depth                                : 16 bits
Compression mode                         : Lossy
Stream size                              : 101 MiB (13%)
Default                                  : Yes
Forced                                   : No

-
Скриншоты
Скачать

Скачать торрент! Путешествие на Запад: Покорение демонов / Journey to the West: Conquering the Demons / Daai wa sai you chi Chui mo chun kei (Стивен Чоу / Stephen Chow, Дерек Квок / Chi-kin Kwok) [2013, Китай, фэнтези, HDRip-AVC] DVO [GREEN TEA]

Как скачивать? · Что такое торрент? · Рейтинг и ограничения

Сайт не распространяет и не хранит электронные версии произведений, а лишь предоставляет доступ к создаваемому пользователями каталогу ссылок на торрент-файлы, которые содержат только списки хеш-сумм

[Профиль] [ЛС]
Показать сообщения:    
Ответить на тему

Текущее время: Сегодня 14:21

Часовой пояс: GMT + 4



Вы не можете начинать темы
Вы не можете отвечать на сообщения
Вы не можете редактировать свои сообщения
Вы не можете удалять свои сообщения
Вы не можете голосовать в опросах
Вы не можете прикреплять файлы к сообщениям
Вы не можете скачивать файлы