Против природы / Against the Wild (Ричард Боддингтон / Richard Boddington) [2014, Канада, приключения, семейный, драма, HDRip] Original (Eng) + Sub (Rus, Eng)

Ответить на тему
 
Автор Сообщение

user ®

Стаж: 7 лет 7 месяцев

Сообщений: 20008

Пост Пост: #1 от 14-Май-2014 19:15

[Цитировать]

Против природы
-----------------------------------------------------------
Against the Wild-- Страна: Канада
Жанр: Приключения, семейный, драма
Продолжительность: 01:32:26
Год выпуска: 2014
Перевод: : субтитры (adamovna)
Оригинальная аудиодорожка:: Английский
Субтитры: Русские, английские (SRT)--Режиссёр: Ричард Боддингтон / Richard Boddington--В ролях: С.Дж. Адамс / CJ Adams, Эрин Питт/ Erin Pitt, Наташа Хенстридж / Natasha Henstridge, Тед Уиттэлл / Ted Whittall, Джон Тенч / John Tench, Рейнбоу Фрэнкс / Rainbow Francks, Грег Кэмпбелл / Greg Campbell, Сара Дикинс/ Sarah Deakins, Дженнифер Гибсон / Jennifer Gibson-Описание: Брат с сестрой и аляскинский маламут - их преданный пес - после авиационной катастрофы оказываются в той части Аляски, где царят первозданная красота и природная жестокость. Спасатели отправляются на их поиски, родители страшно переживают за своих детей. Но пока придет помощь, пройдет немало времени. Им придется объединить все свои навыки, забыть прежние обиды и научиться доверять друг другу, чтобы вырваться из этого плена. --Доп. информация:
Релиз для IMDb: 5,0 (322)--Качество: HDRip
Формат: avi
Видео: XviD, 1 910 Kbps, 720 x 400, 16:9, 23.976 fps
Аудио: AC3, 2 ch, 192 kbps, 48 kHz | Английский, оригинал |
Формат субтитров: Русские, английские (SRT)-MediaInfo
General
Complete name : F:\Against the Wild (2014).avi
Format : AVI
Format/Info : Audio Video Interleave
File size : 1.36 GiB
Duration : 1h 32mn
Overall bit rate : 2 112 Kbps
Writing application : VirtualDubMod 1.5.10.2 (build 2542/release)
Writing library : VirtualDubMod build 2542/release
Video #0
ID : 0
Format : MPEG-4 Visual
Format profile : Advanced Simple@L5
Format settings, BVOP : 2
Format settings, QPel : No
Format settings, GMC : No warppoints
Format settings, Matrix : Custom
Codec ID : XVID
Codec ID/Hint : XviD
Duration : 1h 32mn
Bit rate : 1 910 Kbps
Width : 720 pixels
Height : 400 pixels
Display aspect ratio : 16:9
Frame rate : 23.976 fps
Color space : YUV
Chroma subsampling : 4:2:0
Bit depth : 8 bits
Scan type : Progressive
Compression mode : Lossy
Bits/(Pixel*Frame) : 0.277
Stream size : 1.23 GiB (90%)
Writing library : XviD 65
Audio #1
ID : 1
Format : AC-3
Format/Info : Audio Coding 3
Mode extension : CM (complete main)
Codec ID : 2000
Duration : 1h 32mn
Bit rate mode : Constant
Bit rate : 192 Kbps
Channel(s) : 2 channels
Channel positions : Front: L R
Sampling rate : 48.0 KHz
Bit depth : 16 bits
Compression mode : Lossy
Stream size : 127 MiB (9%)
Alignment : Split accross interleaves
Interleave, duration : 42 ms (1.00 video frame)
Interleave, preload duration : 500 ms
Субтитры
672
00:43:16,960 --> 00:43:18,527
Билл, мы можем подняться
на нашем вертолете?
673
00:43:18,529 --> 00:43:20,496
Он вернулся в ангар.
Механики обнаружили
674
00:43:20,498 --> 00:43:22,631
довольно сильную утечку масла
сегодня утром.
675
00:43:22,633 --> 00:43:24,934
Ну а сколько нужно времени
на ремонт?
676
00:43:24,936 --> 00:43:27,002
Возможно, повреждение двигателя.
Может, пару дней.
677
00:43:27,004 --> 00:43:29,004
Ну, если этот вертолет
в такой плохой форме,
678
00:43:29,006 --> 00:43:31,140
то как, тогда, вы заботились
о самолете Чарли?
679
00:43:31,142 --> 00:43:34,009
Экерман сократил персонал
до минимума. И вы это знаете.
680
00:43:34,011 --> 00:43:36,011
Я также знаю Чарли Фостера,
и тот самолет
681
00:43:36,013 --> 00:43:37,880
разбился не из-за ошибки пилота.
682
00:43:37,882 --> 00:43:39,515
Вы правы.
683
00:43:39,517 --> 00:43:41,217
Мы делаем все, что можем,
684
00:43:41,219 --> 00:43:43,352
но, возможно, этого не достаточно.
685
00:43:45,555 --> 00:43:47,356
Боже мой. Что же нам теперь делать?
686
00:43:47,358 --> 00:43:49,058
Я не знаю.
687
00:43:50,093 --> 00:43:52,695
Возможно, Уокер прав. Возможно,
мы должны просто остаться здесь
688
00:43:52,697 --> 00:43:54,163
и дать профессионалам
выполнить свою работу.
689
00:43:54,165 --> 00:43:56,165
Там мои дети, Роберт.
690
00:43:56,167 --> 00:43:57,833
Да, но они и мои дети тоже, Сьюзен.
691
00:43:57,835 --> 00:44:00,569
Ты думаешь, мне сейчас
не страшно до смерти?
Скриншоты poster ВНИМАНИЕ! ТОРРЕНТ ПЕРЕЗАЛИТ 14.05.2014 в 17:33 В СВЯЗИ С ЗАМЕНОЙ ЗВУКОВОЙ ДОРОЖКИ
Скачать

Скачать торрент!

Как скачивать? · Что такое торрент? · Рейтинг и ограничения

Сайт не распространяет и не хранит электронные версии произведений, а лишь предоставляет доступ к создаваемому пользователями каталогу ссылок на торрент-файлы, которые содержат только списки хеш-сумм

[Профиль] [ЛС]
Показать сообщения:    
Ответить на тему

Текущее время: Сегодня 14:43

Часовой пояс: GMT + 4



Вы не можете начинать темы
Вы не можете отвечать на сообщения
Вы не можете редактировать свои сообщения
Вы не можете удалять свои сообщения
Вы не можете голосовать в опросах
Вы не можете прикреплять файлы к сообщениям
Вы не можете скачивать файлы