Академия вампиров / Vampire Academy (Марк Уотерс / Mark Waters) [2014, США, Ужасы, фэнтези, боевик, комедия, детектив, BDRip-AVC] DVO (BaibaKo) + Original Eng + Sub (rus, en)

Ответить на тему
 
Автор Сообщение

user ®

Стаж: 7 лет 7 месяцев

Сообщений: 20008

Пост Пост: #1 от 14-Май-2014 11:15

[Цитировать]

Академия вампиров / Vampire Academy-
  • Страна: США
    Жанр: Ужасы, фэнтези, боевик, комедия, детектив
    Год выпуска: 2014
    Продолжительность: 01:44:22-
  • Перевод: Любительский (многоголосый закадровый) [BaibaKo]
    Cубтитры: Русские, английские (Full + SDH + SDH-Colored)
    Оригинальная аудиодорожка: английский
    Режиссер: Марк Уотерс / Mark Waters-
  • В ролях: Зои Дойч, Люси Фрай, Данила Козловский, Доминик Шервуд, Сара Хайланд, Гэбриел Бирн, Сами Гэйл, Ольга Куриленко, Джоэли Ричардсон, Кэмерон Монахэн.-
  • Мало кому известно, что в Америке, в самом сердце Монтаны, имеется настоящая Академия, где вампиры обучаются высокому искусству магии. И почти никто не знает, что в мире идут кровавые вампирские войны и расе мороев противостоит жестокое племя стригоев, вампиров, переступивших черту закона и не гнушающихся убийством. Даже стены Академии, святая святых науки, не слишком надежная защита от происков темных сил. Юная моройская принцесса Лисса и Роза, ее подруга и верный страж, однажды убеждаются в этом, оказавшись в эпицентре грозных событий.-
  • Доп. информация: |КиноПоиск|IMDB|Сэмпл|-Качество видео: BDRip-AVC
    Формат видео: MKV
    Видео кодек: H.264
    Аудио кодек: AC3-Видео: 1032x430(2,40:1), 23,976 fps, 1107 Кbps, 0.104 bit/pixel
    Аудио 1: 48 kHz, AC3 Dolby Digital, 3/2 (L,C,R,l,r) + LFE ch, 384.00 kbps | RUS
    Аудио 2: 48 kHz, AC3 Dolby Digital, 3/2 (L,C,R,l,r) + LFE ch, 448.00 kbps | ENG-
MediaInfo
Общее
Уникальный идентификатор : 198135721534654018505595148565363753905 (0x950F8D4A57D73A45A1BA2447E49B03B1)
Полное имя : Akademiya.Vampirov.2014.DUAL.BDRip.x264.-HELLYWOOD.mkv
Формат : Matroska
Версия формата : Version 4 / Version 2
Размер файла : 1,42 Гбайт
Длительность : 1 ч. 44 м.
Общий поток : 1941 Кбит/сек
Название фильма : HELLYWOOD - rip by potroks
Дата кодирования : UTC 2014-05-13 16:16:20
Программа кодирования : mkvmerge v5.9.0 ('On The Loose') built on Dec 15 2012 16:39:58
Библиотека кодирования : libebml v1.3.0 + libmatroska v1.4.0
Видео
Идентификатор : 1
Формат : AVC
Формат/Информация : Advanced Video Кодек
Профиль формата : High@L4.1
Параметр CABAC формата : Да
Параметр ReFrames формата : 10 кадров
Идентификатор кодека : V_MPEG4/ISO/AVC
Длительность : 1 ч. 44 м.
Битрейт : 1107 Кбит/сек
Ширина : 1032 пикселя
Высота : 430 пикселей
Соотношение сторон : 2,40:1
Режим частоты кадров : Постоянный
Частота кадров : 23,976 кадра/сек
Цветовое пространство : YUV
Субдискретизация насыщенности : 4:2:0
Битовая глубина : 8 бит
Тип развёртки : Прогрессивная
Бит/(Пиксели*Кадры) : 0.104
Размер потока : 799 Мбайт (55%)
Заголовок : Vampire Academy
Библиотека кодирования : x264 core 130 r2273 b3065e6
Настройки программы : cabac=1 / ref=10 / deblock=1:-2:-1 / analyse=0x3:0x133 / me=umh / subme=11 / psy=1 / psy_rd=1.00:0.03 / mixed_ref=1 / me_range=32 / chroma_me=1 / trellis=2 / 8x8dct=1 / cqm=0 / deadzone=21,11 / fast_pskip=0 / chroma_qp_offset=-3 / threads=9 / lookahead_threads=6 / sliced_threads=0 / nr=0 / decimate=0 / interlaced=0 / bluray_compat=0 / constrained_intra=0 / bframes=11 / b_pyramid=2 / b_adapt=2 / b_bias=0 / direct=3 / weightb=1 / open_gop=0 / weightp=2 / keyint=250 / keyint_min=23 / scenecut=40 / intra_refresh=0 / rc_lookahead=60 / rc=2pass / mbtree=0 / bitrate=1107 / ratetol=1.0 / qcomp=0.70 / qpmin=0 / qpmax=69 / qpstep=4 / cplxblur=20.0 / qblur=0.5 / vbv_maxrate=20000 / vbv_bufsize=20000 / nal_hrd=none / ip_ratio=1.35 / pb_ratio=1.25 / aq=1:0.80
Язык : English
Default : Да
Forced : Нет
Аудио #1
Идентификатор : 2
Формат : AC-3
Формат/Информация : Audio Coding 3
Расширение режима : CM (complete main)
Параметр Endianness формата : Big
Идентификатор кодека : A_AC3
Длительность : 1 ч. 44 м.
Вид битрейта : Постоянный
Битрейт : 384 Кбит/сек
Каналы : 6 каналов
Расположение каналов : Front: L C R, Side: L R, LFE
Частота : 48,0 КГц
Битовая глубина : 16 бит
Метод сжатия : С потерями
Размер потока : 287 Мбайт (20%)
Заголовок : MVO | DD 5.1 @ 384 kbps - BaibaKo
Язык : Russian
Default : Да
Forced : Нет
Аудио #2
Идентификатор : 3
Формат : AC-3
Формат/Информация : Audio Coding 3
Расширение режима : CM (complete main)
Параметр Endianness формата : Big
Идентификатор кодека : A_AC3
Длительность : 1 ч. 44 м.
Вид битрейта : Постоянный
Битрейт : 448 Кбит/сек
Каналы : 6 каналов
Расположение каналов : Front: L C R, Side: L R, LFE
Частота : 48,0 КГц
Битовая глубина : 16 бит
Метод сжатия : С потерями
Размер потока : 334 Мбайт (23%)
Заголовок : Original | DD 5.1 @ 448 kbps
Язык : English
Default : Нет
Forced : Нет
Текст #1
Идентификатор : 4
Формат : UTF-8
Идентификатор кодека : S_TEXT/UTF8
Идентификатор кодека/Информация : UTF-8 Plain Text
Язык : Russian
Default : Нет
Forced : Нет
Текст #2
Идентификатор : 5
Формат : UTF-8
Идентификатор кодека : S_TEXT/UTF8
Идентификатор кодека/Информация : UTF-8 Plain Text
Заголовок : Full
Язык : English
Default : Нет
Forced : Нет
Текст #3
Идентификатор : 6
Формат : UTF-8
Идентификатор кодека : S_TEXT/UTF8
Идентификатор кодека/Информация : UTF-8 Plain Text
Заголовок : SDH
Язык : English
Default : Нет
Forced : Нет
Текст #4
Идентификатор : 7
Формат : UTF-8
Идентификатор кодека : S_TEXT/UTF8
Идентификатор кодека/Информация : UTF-8 Plain Text
Заголовок : SDH-Colored
Язык : English
Default : Нет
Forced : Нет
Меню
00:06:11.913 : en:(01)00:06:11:913
00:13:48.661 : en:(02)00:13:48:661
00:19:34.590 : en:(03)00:19:34:590
00:26:25.834 : en:(04)00:26:25:834
00:33:07.652 : en:(05)00:33:07:652
00:39:47.760 : en:(06)00:39:47:760
00:46:29.119 : en:(07)00:46:29:119
00:51:45.852 : en:(08)00:51:45:852
00:56:13.578 : en:(09)00:56:13:578
01:01:42.323 : en:(10)01:01:42:323
01:07:31.005 : en:(11)01:07:31:005
01:13:32.533 : en:(12)01:13:32:533
01:21:50.071 : en:(13)01:21:50:071
01:30:11.781 : en:(14)01:30:11:781
01:36:05.676 : en:(15)01:36:05:676
01:44:22.005 : en:(16)01:44:22:005
Скриншот c названием фильма Скриншоты Трейлер
Скачать

Скачать торрент!

Как скачивать? · Что такое торрент? · Рейтинг и ограничения

Сайт не распространяет и не хранит электронные версии произведений, а лишь предоставляет доступ к создаваемому пользователями каталогу ссылок на торрент-файлы, которые содержат только списки хеш-сумм

[Профиль] [ЛС]
Показать сообщения:    
Ответить на тему

Текущее время: Сегодня 05:11

Часовой пояс: GMT + 4



Вы не можете начинать темы
Вы не можете отвечать на сообщения
Вы не можете редактировать свои сообщения
Вы не можете удалять свои сообщения
Вы не можете голосовать в опросах
Вы не можете прикреплять файлы к сообщениям
Вы не можете скачивать файлы