Пульс / Pulse (Джим Сонзеро / Jim Sonzero) [2006, США, ужасы, фантастика, триллер, детектив, BDRip 720p] Dub + Original Eng + Sub (Rus, Eng)

Ответить на тему
 
Автор Сообщение

user ®

Стаж: 7 лет 7 месяцев

Сообщений: 20008

Пост Пост: #1 от 14-Май-2014 01:45

[Цитировать]

Пульс / Pulse- Страна: США
Жанр: ужасы, фантастика, триллер, детектив
Год выпуска: 2006
Продолжительность: 01:28:10
Перевод: Профессиональный (дублированный)
Cубтитры: русские, английские
Оригинальная аудиодорожка: английский-Режиссер: Джим Сонзеро / Jim Sonzero
В ролях: Кристен Белл (Mattie), Иен Сомерхолдер (Dexter), Кристина Милиан (Isabelle Fuentes), Рик Гонсалес (Stone), Джонатан Такер (Josh), Сэмм Ливайн (Tim), Октавия Спенсер (Landlady), Рон Рифкин (Dr. Waterson), Джозеф Гатт (Dark Figure), Кел О’Нил (Douglas Zieglar), Зэк Гренье (Professor Cardiff), Рики Линдхоум (Janelle)-Описание: Представьте себе, что беспроводные технологии могут связывать человека не только с кем-либо находящимся на другом конце земного шара, но и с другим миром. Миром мертвых. Представьте, что ваш сотовый телефон или ваша электронная почта — дверь. И когда вы звоните по мобильному, или работаете с e-mail, эта дверь открывается, и в наш мир проникают они. Они уже умерли. И они могут сделать так, что умрете и вы. Спрятаться негде, убежать невозможно. Вы уже заражены.
- -Тип релиза: BDRip 720p (исх. Bluray Disc)
Контейнер: MKV
Видео: x.264, 1280x534, 6330 Kbps, 23.976 fps
Аудио 1: DTS, 768 Kbps, 5.1 ch, 48000 Hz - RUS
Аудио 2: DTS, 1510 Kbps, 5.1 ch, 48000 Hz - ENG
Формат субтитров: softsub (SRT) - русские, английские
-Скриншоты Резервные скриншоты
-
MediaInfo / log
Format : Matroska
Format version : Version 4 / Version 2
File size : 5.30 GiB
Duration : 1h 28mn
Overall bit rate : 8 602 Kbps
Movie name : Пульс / Pulse (2006) BDRip 720p [RG Torrents.ru]
Encoded date : UTC 2014-05-12 14:24:22
Writing application : mkvmerge v6.9.1 ('Blue Panther') 32bit built on Apr 18 2014 18:15:44
Writing library : libebml v1.3.0 + libmatroska v1.4.1
Attachment : Yes
Video
ID : 1
Format : AVC
Format/Info : Advanced Video Codec
Format profile : High@L4.1
Format settings, CABAC : Yes
Format settings, ReFrames : 10 frames
Codec ID : V_MPEG4/ISO/AVC
Duration : 1h 28mn
Bit rate : 6 330 Kbps
Width : 1 280 pixels
Height : 534 pixels
Display aspect ratio : 2.40:1
Frame rate mode : Constant
Frame rate : 23.976 fps
Color space : YUV
Chroma subsampling : 4:2:0
Bit depth : 8 bits
Scan type : Progressive
Bits/(Pixel*Frame) : 0.386
Stream size : 3.79 GiB (72%)
Title : RG Torrents.ru
Writing library : x264 core 142 r2409 d6b4e63
Encoding settings : cabac=1 / ref=10 / deblock=1:-3:-3 / analyse=0x3:0x113 / me=umh / subme=10 / psy=1 / psy_rd=1.07:0.15 / mixed_ref=1 / me_range=48 / chroma_me=1 / trellis=2 / 8x8dct=1 / cqm=0 / deadzone=21,11 / fast_pskip=0 / chroma_qp_offset=-3 / threads=3 / lookahead_threads=1 / sliced_threads=0 / nr=0 / decimate=1 / interlaced=0 / bluray_compat=0 / constrained_intra=0 / bframes=10 / b_pyramid=2 / b_adapt=2 / b_bias=0 / direct=3 / weightb=1 / open_gop=0 / weightp=2 / keyint=240 / keyint_min=23 / scenecut=40 / intra_refresh=0 / rc_lookahead=60 / rc=2pass / mbtree=0 / bitrate=6330 / ratetol=1.0 / qcomp=0.60 / qpmin=0 / qpmax=69 / qpstep=4 / cplxblur=20.0 / qblur=0.5 / vbv_maxrate=50000 / vbv_bufsize=62500 / nal_hrd=none / filler=0 / ip_ratio=1.25 / pb_ratio=1.30 / aq=2:0.80 / zones=119140,126632,b=0.35
Language : English
Default : Yes
Forced : No
Audio #1
ID : 2
Format : DTS
Format/Info : Digital Theater Systems
Mode : 16
Format settings, Endianness : Big
Codec ID : A_DTS
Duration : 1h 28mn
Bit rate mode : Constant
Bit rate : 768 Kbps
Channel(s) : 6 channels
Channel positions : Front: L C R, Side: L R, LFE
Sampling rate : 48.0 KHz
Bit depth : 24 bits
Compression mode : Lossy
Stream size : 484 MiB (9%)
Language : Russian
Default : Yes
Forced : No
Audio #2
ID : 3
Format : DTS
Format/Info : Digital Theater Systems
Mode : 16
Format settings, Endianness : Big
Codec ID : A_DTS
Duration : 1h 28mn
Bit rate mode : Constant
Bit rate : 1 510 Kbps
Channel(s) : 6 channels
Channel positions : Front: L C R, Side: L R, LFE
Sampling rate : 48.0 KHz
Bit depth : 24 bits
Compression mode : Lossy
Stream size : 952 MiB (18%)
Language : English
Default : No
Forced : No
Text #1
ID : 4
Format : UTF-8
Codec ID : S_TEXT/UTF8
Codec ID/Info : UTF-8 Plain Text
Language : Russian
Default : No
Forced : No
Text #2
ID : 5
Format : UTF-8
Codec ID : S_TEXT/UTF8
Codec ID/Info : UTF-8 Plain Text
Language : English
Default : No
Forced : No
Menu
00:00:00.000 : en:Library Encounter
00:06:08.409 : en:Mixed Messages
00:11:35.361 : en:Escape
00:16:50.592 : en:Mourning
00:20:42.616 : en:"Helpme."
00:25:13.053 : en:The Infection Spreads
00:30:08.765 : en:"Do You Want to Meet a Ghost?"
00:37:05.348 : en:Frightful Visions
00:40:38.727 : en:Occupied
00:44:49.520 : en:Piecing the Puzzle Together
00:50:19.850 : en:Paranoia
00:53:03.430 : en:Unbalanced Load
00:56:49.948 : en:"I See You"
01:02:08.266 : en:Answers
01:09:31.208 : en:The Lab
01:18:45.846 : en:The Will to Live/End Credits-
-
x264 [info]: frame I:933 Avg QP:15.12 size:101404x264 [info]: frame P:26658 Avg QP:16.88 size: 50802x264 [info]: frame B:99245 Avg QP:19.00 size: 27513x264 [info]: consecutive B-frames: 2.8% 2.7% 7.6% 10.7% 14.5% 45.5% 6.4% 2.1% 2.2% 2.8% 2.7%
-
Скачать

Скачать торрент!

Как скачивать? · Что такое торрент? · Рейтинг и ограничения

Сайт не распространяет и не хранит электронные версии произведений, а лишь предоставляет доступ к создаваемому пользователями каталогу ссылок на торрент-файлы, которые содержат только списки хеш-сумм

[Профиль] [ЛС]
Показать сообщения:    
Ответить на тему

Текущее время: Сегодня 06:15

Часовой пояс: GMT + 4



Вы не можете начинать темы
Вы не можете отвечать на сообщения
Вы не можете редактировать свои сообщения
Вы не можете удалять свои сообщения
Вы не можете голосовать в опросах
Вы не можете прикреплять файлы к сообщениям
Вы не можете скачивать файлы