Любовь сквозь время / Winter\'s Tale (Акива Голдсман / Akiva Goldsman) [2014, США, фэнтези, драма, мелодрама, детектив, DVDRip] Dub (звук с TS) + Original Eng

Ответить на тему
 
Автор Сообщение

user ®

Стаж: 7 лет 7 месяцев

Сообщений: 20008

Пост Пост: #1 от 13-Май-2014 03:25

[Цитировать]

Любовь сквозь время / Winter's Tale«Когда случаются чудеса»-
  • Страна: США
    Жанр: фэнтези, драма, мелодрама, детектив
    Год выпуска: 2014
    Продолжительность: 01:53:15-
  • Перевод: Профессиональный (дублированный) (звук с TS)
    Cубтитры: нет
    Оригинальная аудиодорожка: английский
    Режиссер: Акива Голдсман / Akiva Goldsman-
  • В ролях: Колин Фаррелл, Рассел Кроу, Дженнифер Коннелли, Уилл Смит, Уильям Хёрт, Джессика Браун-Финдли, МакКайла Твиггс, Ева Мари Сэйнт, Рипли Собо, Кевин Корригэн, Джошуа Генри, Финн Уиттрок.-
  • Питер Лэй - талантливый вор, который и подумать не мог, что его собственное сердце украдет очаровательная Беверли Пенн. Но их любовь родилась под несчастливой звездой: Беверли угасает на глазах от неизлечимой болезни, а Питеру суждена куда более жестокая смерть от рук его давнего наставника, демона Перли Сомса. Питер отчаянно пытается спасти свою истинную любовь: сквозь века, вопреки силам тьмы, несмотря на то, что Перли делает все от него зависящее, чтобы одержать верх, ведь победитель получает все, а проигравший будет проклят навеки.-
  • Доп. информация: |КиноПоиск|IMDB|Сэмпл|-Качество видео: DVDRip
    Формат видео: AVI
    Видео кодек: XviD
    Аудио кодек: MP3 /AC3-Видео: XviD, 720x304 (2.35:1), 1363 kbps, 25 fps, 0,249 bpp
    Аудио 1: MP3, 2.0, 44 kHz, 128 kbps, RUS
    Аудио 2: AC3, 5.1, 48 kHz, 384 kbps, ENG-
MediaInfo
General
Название : D:\Торенты\W1nt3r.Tale.2014.Dt.DVDRip.1400MB.avi
Формат : AVI
Формат/Info : Audio Video Interleave
Размер файла : 1.50 GiB
Длительность : 1h 53mn
Общий Битрейт : 1 890 Kbps
Создано приложением : VirtualDubMod 1.5.10.2 (build 2540/release)
Writing library : VirtualDubMod build 2540/release
Video
ID : 0
Формат : MPEG-4 Visual
Формат profile : Simple@L3
Формат настройки, BVOP : No
Формат настройки, QPel : No
Формат настройки, GMC : No warppoints
Формат настройки, Matrix : Default (H.263)
Кодек ID : XVID
Кодек ID/Hint : XviD
Длительность : 1h 53mn
Битрейт : 1 363 Kbps
Width : 720 пикселей
Высота : 304 пикселей
Соотношение кадра : 2.35:1
Частота кадров : 25.000 fps
Цветопередача : YUV
Chroma subsampling : 4:2:0
Разрядность : 8 bits
Тип сканирования : Progressive
Режим сжатия : Lossy
Bits/(Pixel*Frame) : 0.249
Размер потока : 1.08 GiB (72%)
Writing library : XviD 1.1.2 (UTC 2006-11-01)
Audio #1
ID : 1
Формат : MPEG Audio
Формат version : Version 1
Формат profile : Layer 3
Кодек ID : 55
Кодек ID/Hint : MP3
Длительность : 1h 53mn
Битрейт mode : Constant
Битрейт : 128 Kbps
Каналы(s) : 2 канала
Частота : 44.1 KHz
Режим сжатия : Lossy
Размер потока : 104 MiB (7%)
Выравнивание : Split accross interleaves
Interleave, Длительность : 40 ms (1.00 video frame)
Interleave, preload Длительность : 500 ms
Audio #2
ID : 2
Формат : AC-3
Формат/Info : Audio Coding 3
Расширение режима : CM (complete main)
Кодек ID : 2000
Длительность : 1h 53mn
Битрейт mode : Constant
Битрейт : 384 Kbps
Каналы(s) : 6 каналов
Каналы positions : Front: L C R, Side: L R, LFE
Частота : 48.0 KHz
Разрядность : 16 bits
Режим сжатия : Lossy
Размер потока : 311 MiB (20%)
Выравнивание : Split accross interleaves
Interleave, Длительность : 40 ms (1.00 video frame)
Interleave, preload Длительность : 500 ms
Скриншот c названием фильма Скриншоты
Скачать

Скачать торрент!

Как скачивать? · Что такое торрент? · Рейтинг и ограничения

Сайт не распространяет и не хранит электронные версии произведений, а лишь предоставляет доступ к создаваемому пользователями каталогу ссылок на торрент-файлы, которые содержат только списки хеш-сумм

[Профиль] [ЛС]
Показать сообщения:    
Ответить на тему

Текущее время: Сегодня 13:40

Часовой пояс: GMT + 4



Вы не можете начинать темы
Вы не можете отвечать на сообщения
Вы не можете редактировать свои сообщения
Вы не можете удалять свои сообщения
Вы не можете голосовать в опросах
Вы не можете прикреплять файлы к сообщениям
Вы не можете скачивать файлы