Злая кровь / Плохая наследственность / Wicked blood (Марк Янг / Mark Young) [2014, США, Криминальная драма, DVDRip-AVC] VO (Andi) + Sub Rus + Original Eng

Ответить на тему
 
Автор Сообщение

user ®

Стаж: 7 лет 7 месяцев

Сообщений: 20008

Пост Пост: #1 от 12-Май-2014 21:05

[Цитировать]

Злая кровь / Плохая наследственность / Wicked blood
Страна: США
Жанр: Криминальная драма
Год выпуска: 2014
Продолжительность: 01:31:48
Перевод: Одноголосый закадровый Andi по субтитрам М. Васильев aka lakdhf
Cубтитры: русские
Оригинальная аудиодорожка: английский
Режиссер: Марк Янг / Mark Young
В ролях: Эбигейл Бреслин, Алекса ПенаВега, Шон Бин, Джеймс Пьюрфой, Джейк Бьюзи
Описание: Ханна живет в глухой провинции в обществе дяди - наркомана и старшей сестры - стервы. Каждый вечер проходит за выяснением отношений с родней, а каждые выходные - обязательный поход на обед к другому дяде, местному авторитету и наркоторговцу. Единственная радость в жизни: посещение шахматного кружка. Однажды, проснувшись утром, Ханна окончательно понимает, что в этой дыре ей ничего не светит и решает бежать в поисках лучшей жизни. Но для начала, чтобы скопить денег на билет в счастливое будущее, устраивается работать наркокурьером.
Доп. информация: В фильме звучат отрывки из "Оды шахматам" английского поэта Николаса Бретона, жившего в 16 веке. В данной версии поэма переведена стаихами , а не прозой.
Сэмпл: http://multi-up.com/973128
Качество видео: DVDRip-AVC
Формат видео: MKV
Видео: 1300 Kbps, 720x304 (2.35:1), 23,976 fps, AVC
Аудио: 384 Kbps, 48.0 KHz, 16 bits, AC 3-русский
Аудио 2: 384 Kbps, 48.0 KHz, 16 bits, AC 3-английский
MediaInfo
Общее
Уникальный идентификатор : 220723292390124549251767072754681404027 (0xA60DC283CFD041AFABB8CA292BD65A7B)
Полное имя : L:\WickedBlood (VO Andi).mkv
Формат : Matroska
Версия формата : Version 2
Размер файла : 1,32 Гбайт
Продолжительность : 1 ч. 31 м.
Общий поток : 2054 Кбит/сек
Дата кодирования : UTC 2014-05-11 14:50:27
Программа кодирования : mkvmerge v5.5.0 ('Healer') built on Apr 6 2012 21:43:24
Библиотека кодирования : libebml v1.2.3 + libmatroska v1.3.0
Видео
Идентификатор : 1
Формат : AVC
Формат/Информация : Advanced Video Codec
Профиль формата : Main@L3.0
Параметр CABAC формата : Да
Параметр ReFrames формата : 4 кадра
Идентификатор кодека : V_MPEG4/ISO/AVC
Продолжительность : 1 ч. 31 м.
Битрейт : 1300 Кбит/сек
Ширина : 720 пикселей
Высота : 304 пикселя
Соотношение сторон : 2,35:1
Соотношение сторон в оригинале : 2,35:1
Режим частоты кадров : Постоянный
Частота кадров : 23,976 кадра/сек
Цветовое пространство : YUV
Субдискретизация насыщенности : 4:2:0
Битовая глубина : 8 бит
Тип развёртки : Прогрессивная
Бит/(Пиксели*Кадры) : 0.248
Размер потока : 818 Мбайт (61%)
Библиотека кодирования : x264 core 125
Настройки программы : cabac=1 / ref=1 / deblock=1:0:0 / analyse=0x1:0x111 / me=hex / subme=2 / psy=1 / psy_rd=1.00:0.00 / mixed_ref=0 / me_range=16 / chroma_me=1 / trellis=0 / 8x8dct=0 / cqm=0 / deadzone=21,11 / fast_pskip=1 / chroma_qp_offset=0 / threads=12 / lookahead_threads=2 / sliced_threads=0 / nr=0 / decimate=1 / interlaced=0 / bluray_compat=0 / constrained_intra=0 / bframes=3 / b_pyramid=2 / b_adapt=1 / b_bias=0 / direct=1 / weightb=1 / open_gop=0 / weightp=1 / keyint=240 / keyint_min=24 / scenecut=40 / intra_refresh=0 / rc_lookahead=10 / rc=abr / mbtree=1 / bitrate=1300 / ratetol=1.0 / qcomp=0.60 / qpmin=3 / qpmax=69 / qpstep=4 / ip_ratio=1.40 / aq=1:1.00
Язык : English
Default : Да
Forced : Нет
Основные цвета : BT.709
Характеристики трансфера : BT.709
Коэффициенты матрицы : BT.709
Аудио #1
Идентификатор : 2
Формат : AC-3
Формат/Информация : Audio Coding 3
Расширение режима : CM (complete main)
Параметр Endianness формата : Big
Идентификатор кодека : A_AC3
Продолжительность : 1 ч. 31 м.
Вид битрейта : Постоянный
Битрейт : 384 Кбит/сек
Каналы : 6 каналов
Расположение каналов : Front: L C R, Side: L R, LFE
Частота : 48,0 КГц
Битовая глубина : 16 бит
Метод сжатия : С потерями
Размер потока : 252 Мбайт (19%)
Заголовок : VO Andi
Язык : Russian
Default : Да
Forced : Нет
Аудио #2
Идентификатор : 3
Формат : AC-3
Формат/Информация : Audio Coding 3
Расширение режима : CM (complete main)
Параметр Endianness формата : Big
Идентификатор кодека : A_AC3
Продолжительность : 1 ч. 31 м.
Вид битрейта : Постоянный
Битрейт : 384 Кбит/сек
Каналы : 6 каналов
Расположение каналов : Front: L C R, Side: L R, LFE
Частота : 48,0 КГц
Битовая глубина : 16 бит
Метод сжатия : С потерями
Размер потока : 252 Мбайт (19%)
Язык : English
Default : Нет
Forced : Нет
Текст
Идентификатор : 4
Формат : UTF-8
Идентификатор кодека : S_TEXT/UTF8
Идентификатор кодека/Информация : UTF-8 Plain Text
Язык : Russian
Default : Да
Forced : Нет
Меню
00:00:00.000 : en:Chapter 1
00:05:39.214 : en:Chapter 2
00:11:25.895 : en:Chapter 3
00:17:42.939 : en:Chapter 4
00:23:19.233 : en:Chapter 5
00:29:05.872 : en:Chapter 6
00:34:58.934 : en:Chapter 7
00:42:22.419 : en:Chapter 8
00:47:17.548 : en:Chapter 9
00:52:13.636 : en:Chapter 10
00:57:47.094 : en:Chapter 11
01:05:24.260 : en:Chapter 12
01:10:47.125 : en:Chapter 13
01:15:41.753 : en:Chapter 14
01:20:30.667 : en:Chapter 15
01:28:19.219 : en:Chapter 16
Скриншот c названием фильма Скриншоты
Скачать

Скачать торрент!

Как скачивать? · Что такое торрент? · Рейтинг и ограничения

Сайт не распространяет и не хранит электронные версии произведений, а лишь предоставляет доступ к создаваемому пользователями каталогу ссылок на торрент-файлы, которые содержат только списки хеш-сумм

[Профиль] [ЛС]
Показать сообщения:    
Ответить на тему

Текущее время: Сегодня 22:23

Часовой пояс: GMT + 4



Вы не можете начинать темы
Вы не можете отвечать на сообщения
Вы не можете редактировать свои сообщения
Вы не можете удалять свои сообщения
Вы не можете голосовать в опросах
Вы не можете прикреплять файлы к сообщениям
Вы не можете скачивать файлы