Желание / So-won (Ли Чжун Ик / Joon-ik Lee) [2013, Корея Южная, Драма, HDTVRip] DVO (DeadSno & den904)

Ответить на тему
 
Автор Сообщение

user ®

Стаж: 11 лет

Сообщений: 15151

Пост Пост: #1 от 12-Май-2014 12:55

[Цитировать]

Желание / So-won
Страна: Корея Южная
Жанр: Драма
Год выпуска: 2013
Продолжительность: 02:03:07
Перевод: Любительский (двухголосый закадровый) DeadSno & den904
Перевод на русский язык Crazy Cats
Работа со звуком Гуннлауг
Cубтитры: нет
Оригинальная аудиодорожка: нет
Режиссер: Ли Чжун Ик / Joon-ik Lee
В ролях: Соль Гён Гу, Ум Чжи Вон, Ким Хэ Сук, Ким Сан Хо, Ла Ми Ран, Ян Чжин Сон
Описание: Однажды дождливым утром маленькая Со Вон (Надежда) отправляется в школу, которая находится неподалеку от её дома. Её отец работает на местной фабрике, а мама управляет магазином канцтоваров, расположенным под домом. Со Вон должна была идти в школу с другом, но тот бросил ее ради своих друзей-мальчишек. В школу Со Вон так и не пришла. Несколько часов спустя отец Со Вон, Дон Хун получает ужасный звонок из полиции. Со Вон находится в больнице после жестокого изнасилования. Сможет ли семья пережить это трагическое событие и собрать осколки своего былого счастья?
Доп. информация:

Качество видео: HDTVRip
Формат видео: AVI
Видео: XviD 720x384 23.976fps 1 393 Kbps
Аудио: Dolby AC3 48000Hz stereo 192kbps
MediaInfo
General
Complete name : D:\So.won.2013.HDTVRip.avi
Format : AVI
Format/Info : Audio Video Interleave
File size : 1.37 GiB
Duration : 2h 3mn
Overall bit rate : 1 595 Kbps
Writing application : VirtualDubMod 1.5.10.3 | www.virtualdub-fr.org || (build 2550/release)
Writing library : VirtualDubMod build 2550/release
Video
ID : 0
Format : MPEG-4 Visual
Format profile : Advanced Simple@L5
Format settings, BVOP : Yes
Format settings, QPel : No
Format settings, GMC : No warppoints
Format settings, Matrix : Default (MPEG)
Codec ID : DX50
Codec ID/Hint : DivX 5
Duration : 2h 3mn
Bit rate : 1 393 Kbps
Width : 720 pixels
Height : 384 pixels
Display aspect ratio : 1.85:1
Frame rate : 23.976 fps
Color space : YUV
Chroma subsampling : 4:2:0
Bit depth : 8 bits
Scan type : Progressive
Compression mode : Lossy
Bits/(Pixel*Frame) : 0.210
Stream size : 1.20 GiB (87%)
Writing library : XviD 1.2.1 (UTC 2008-12-04)
Audio
ID : 1
Format : AC-3
Format/Info : Audio Coding 3
Mode extension : CM (complete main)
Format settings, Endianness : Big
Codec ID : 2000
Duration : 2h 3mn
Bit rate mode : Constant
Bit rate : 192 Kbps
Channel count : 2 channels
Channel positions : Front: L R
Sampling rate : 48.0 KHz
Bit depth : 16 bits
Compression mode : Lossy
Stream size : 169 MiB (12%)
Alignment : Split accross interleaves
Interleave, duration : 42 ms (1.00 video frame)
Interleave, preload duration : 500 ms
Скриншот c названием фильма Скриншоты
Скачать

Скачать торрент! Желание / So-won (Ли Чжун Ик / Joon-ik Lee) [2013, Корея Южная, Драма, HDTVRip] DVO (DeadSno & den904)

Как скачивать? · Что такое торрент? · Рейтинг и ограничения

Сайт не распространяет и не хранит электронные версии произведений, а лишь предоставляет доступ к создаваемому пользователями каталогу ссылок на торрент-файлы, которые содержат только списки хеш-сумм

[Профиль] [ЛС]
Показать сообщения:    
Ответить на тему

Текущее время: Сегодня 22:18

Часовой пояс: GMT + 4



Вы не можете начинать темы
Вы не можете отвечать на сообщения
Вы не можете редактировать свои сообщения
Вы не можете удалять свои сообщения
Вы не можете голосовать в опросах
Вы не можете прикреплять файлы к сообщениям
Вы не можете скачивать файлы