Сын в отца / Soshite chichi ni naru (Хирокадзу Корээда / Hirokazu Koreeda) [2013, Япония, Драма, DVDRip] VO (D.I.M.)

Ответить на тему
 
Автор Сообщение

user ®

Стаж: 11 лет

Сообщений: 15151

Пост Пост: #1 от 12-Май-2014 09:45

[Цитировать]

Сын в отца / Soshite chichi ni naru
Страна: Япония
Жанр: Драма
Год выпуска: 2013
Продолжительность: 02:01:17
Перевод: Одноголосый закадровый D.I.M.
Cубтитры: нет
Оригинальная аудиодорожка: нет
Режиссер: Хирокадзу Корээда / Hirokazu Koreeda
В ролях: Масахару Фукуяма, Мачико Оно, Йоко Маки, Джан Фубуки, Шоген Хванг, Арата Иура, Кирин Кики, Дзюн Кунимура, Мегуми Морисаки
Описание: Одержимый мечтой об успешной карьере архитектор Риоата, его молодая жена и 6-летний сын кажутся идеальной семьей. Но герой теряет все жизненные ориентиры в тот день, когда узнает, что в роддоме, где родился его сын, подменили двух младенцев. Мальчик, которого Риоата с женой воспитывали, им не родной, а их собственный ребенок растет в семье со скромным достатком…
Доп. информация:

Качество видео: DVDRip
Формат видео: AVI
Видео: Xvid 720x400 23.976fps 1 478 Kbps
Аудио: MP3 48000Hz stereo 128kbps
MediaInfo
General
Complete name : D:\Soshite.chichi.ni.naru.DVDRip.avi
Format : AVI
Format/Info : Audio Video Interleave
File size : 1.37 GiB
Duration : 2h 1mn
Overall bit rate : 1 616 Kbps
Writing application : VirtualDubModRus 1.5.10.2 (build 2542/release)
Writing library : VirtualDubMod build 2542/release
Video
ID : 0
Format : MPEG-4 Visual
Format profile : Advanced Simple@L5
Format settings, BVOP : Yes
Format settings, QPel : No
Format settings, GMC : No warppoints
Format settings, Matrix : Custom
Codec ID : XVID
Codec ID/Hint : XviD
Duration : 2h 1mn
Bit rate : 1 478 Kbps
Width : 720 pixels
Height : 400 pixels
Display aspect ratio : 16:9
Frame rate : 23.976 fps
Color space : YUV
Chroma subsampling : 4:2:0
Bit depth : 8 bits
Scan type : Progressive
Compression mode : Lossy
Bits/(Pixel*Frame) : 0.214
Stream size : 1.25 GiB (92%)
Writing library : XviD 63
Audio
ID : 1
Format : MPEG Audio
Format version : Version 1
Format profile : Layer 3
Mode : Joint stereo
Mode extension : MS Stereo
Codec ID : 55
Codec ID/Hint : MP3
Duration : 2h 1mn
Bit rate mode : Constant
Bit rate : 128 Kbps
Channel count : 2 channels
Sampling rate : 48.0 KHz
Compression mode : Lossy
Stream size : 111 MiB (8%)
Alignment : Aligned on interleaves
Interleave, duration : 42 ms (1.00 video frame)
Interleave, preload duration : 504 ms
Writing library : LAME3.98.2
Language : Russian
Скриншот c названием фильма Скриншоты
Скачать

Скачать торрент! Сын в отца / Soshite chichi ni naru (Хирокадзу Корээда / Hirokazu Koreeda) [2013, Япония, Драма, DVDRip] VO (D.I.M.)

Как скачивать? · Что такое торрент? · Рейтинг и ограничения

Сайт не распространяет и не хранит электронные версии произведений, а лишь предоставляет доступ к создаваемому пользователями каталогу ссылок на торрент-файлы, которые содержат только списки хеш-сумм

[Профиль] [ЛС]
Показать сообщения:    
Ответить на тему

Текущее время: Сегодня 09:28

Часовой пояс: GMT + 4



Вы не можете начинать темы
Вы не можете отвечать на сообщения
Вы не можете редактировать свои сообщения
Вы не можете удалять свои сообщения
Вы не можете голосовать в опросах
Вы не можете прикреплять файлы к сообщениям
Вы не можете скачивать файлы