Каков отец, таков и сын / Like Father, Like Son (Корэ-Эда Хирокадзу / Kore-Eda Hirokazu) [2013, Япония, Драма, DVDRip] VO D.I.M.

Ответить на тему
 
Автор Сообщение

user ®

Стаж: 11 лет

Сообщений: 15151

Пост Пост: #1 от 11-Май-2014 22:40

[Цитировать]

Каков отец, таков и сын / Like Father, Like Son
Страна: Япония
Жанр: Драма
Год выпуска: 2013
Продолжительность: 2:01:17
Перевод: Одноголосый закадровый D.I.M.
Cубтитры: нет
Режиссер: Корэ-Эда Хирокадзу / Kore-Eda Hirokazu
В ролях: Масахару Фукуяма / Masaharu Fukuyama
Матико Оно / Machiko Ono
Ёко Маки / Yoko Maki
Сёген Хван / Shogen Hwang
Дзюн Фубуки / Jun Fubuki
Исао Нацуяги / Isao Natsuyagi
Описание: Нономия Рёта - успешный архитектор,
который работает не покладая рук,
чтобы обеспечить свою жену Мидори и шестилетнего сына Кейту.
Но неожиданно выясняется, что в роддоме его сына поменяли
с другим мальчиком, и тогда вся их жизнь переворачивается...
Это девяносто третий фильм с моим переводом и озвучкой,
выложенный здесь.
Любители душевного кино могут найти для себя что-то интересное.
Сэмпл: http://multi-up.com/973098
Качество видео: DVDRip
Формат видео: AVI
Видео: 720*400(16:9), 23,976 fps, MPEG-4 Visual (XviD) ~ 1478 kbps avg, 0.214 bit/pixel
Аудио: MPEG Audio Layer 3, 48000Hz, stereo, 128kbps
MediaInfo
Общее
Полное имя : E:\TORENT\РАЗДАЧИ (РИПЫ)\Like Father, Like Son.avi
Формат : AVI
Формат/Информация : Audio Video Interleave
Размер файла : 1,37 Гбайт
Продолжительность : 2 ч. 1 м.
Общий поток : 1616 Кбит/сек
Программа кодирования : VirtualDubModRus 1.5.10.2 (build 2542/release)
Библиотека кодирования : VirtualDubMod build 2542/release
Видео
Идентификатор : 0
Формат : MPEG-4 Visual
Профиль формата : Advanced Simple@L5
Параметр BVOP формата : 1
Параметр QPel формата : Нет
Параметр GMC формата : Без точки перехода
Параметр матрицы формата : Выборочная
Идентификатор кодека : XVID
Идентификатор кодека/Подсказка : XviD
Продолжительность : 2 ч. 1 м.
Битрейт : 1478 Кбит/сек
Ширина : 720 пикс.
Высота : 400 пикс.
Соотношение сторон : 16:9
Частота кадров : 23,976 кадр/сек
Цветовое пространство : YUV
Подвыборка цветности : 4:2:0
Битовая глубина : 8 бит
Тип развёртки : Прогрессивная
Метод сжатия : С потерями
Бит/(Пиксели*Кадры) : 0.214
Размер потока : 1,25 Гбайт (92%)
Библиотека кодирования : XviD 63
Аудио
Идентификатор : 1
Формат : MPEG Audio
Версия формата : Version 1
Профиль формата : Layer 3
Режим : Joint stereo
Идентификатор кодека : 55
Идентификатор кодека/Подсказка : MP3
Продолжительность : 2 ч. 1 м.
Вид битрейта : Постоянный
Битрейт : 128 Кбит/сек
Канал(ы) : 2 канала(ов)
Частота : 48,0 КГц
Метод сжатия : С потерями
Размер потока : 111 Мбайт (8%)
Выравнивание : Соединение по промежуткам
Продолжительность промежутка : 42 мс. (1,00 видеокадр)
Время предзагрузки промежутка : 504 ms
Библиотека кодирования : LAME3.98.2
Язык : Russian
Скриншот c названием фильма Скриншоты
Скачать

Скачать торрент! Каков отец, таков и сын / Like Father, Like Son (Корэ-Эда Хирокадзу / Kore-Eda Hirokazu) [2013, Япония, Драма, DVDRip] VO D.I.M.

Как скачивать? · Что такое торрент? · Рейтинг и ограничения

Сайт не распространяет и не хранит электронные версии произведений, а лишь предоставляет доступ к создаваемому пользователями каталогу ссылок на торрент-файлы, которые содержат только списки хеш-сумм

[Профиль] [ЛС]
Показать сообщения:    
Ответить на тему

Текущее время: Сегодня 10:14

Часовой пояс: GMT + 4



Вы не можете начинать темы
Вы не можете отвечать на сообщения
Вы не можете редактировать свои сообщения
Вы не можете удалять свои сообщения
Вы не можете голосовать в опросах
Вы не можете прикреплять файлы к сообщениям
Вы не можете скачивать файлы