Джек Райан: Теория хаоса / Jack Ryan: Shadow Recruit (Кеннет Брана / Kenneth Branagh) [2014, США, Россия, боевик, триллер, драма, HDRip-AVC] Dub (Line) + Sub Eng + Original Eng

Ответить на тему
 
Автор Сообщение

user ®

Стаж: 7 лет 7 месяцев

Сообщений: 20008

Пост Пост: #1 от 11-Май-2014 22:40

[Цитировать]

Джек Райан: Теория хаоса / Jack Ryan: Shadow Recruit«Главное оружие – интеллект»-
  • Страна: США, Россия
    Жанр: боевик, триллер, драма
    Год выпуска: 2014
    Продолжительность: 01:45:48-
  • Перевод: Профессиональный (дублированный) Line
    Cубтитры: английские
    Оригинальная аудиодорожка: английский
    Режиссер: Кеннет Брана / Kenneth Branagh-
  • В ролях: Крис Пайн, Кира Найтли, Кевин Костнер, Кеннет Брэна, Алек Утгофф, Джемма Чан, Петер Андерссон, Елена Великанова, Нонсо Анози, Колм Фиор.-
  • Описание: Являющийся финансовым аналитиком Райан переезжает в Москву для работы на некоего миллиардера. И именно этот нувориш обставит дела таким образом, чтобы на Райна пали все подозрения в организации террористического сговора с целью обрушить экономику США. И Джеку не остается ничего иного, как попытаться одновременно очистить свое имя, обезвредить заговор и спасти жену, взятую миллиардером в заложники.-
  • Автор рипа: El Santo-
  • Доп. информация: |КиноПоиск|IMDB|Сэмпл|-Качество видео: HDRip-AVC
    Формат видео: MKV-Видео: AVC, 1024x430 (2.40:1), 2187 kbps, 23,976 fps, 0,207 bpp
    Аудио 1: русский - AC3, 2.0, 48 kHz, 320 kbps, 16 bit
    Аудио 2: английский - AC3, 5.1, 48 kHz, 448 kbps, 16 bit-
MediaInfo
General
Unique ID : 227303381777733255873832746085305442850 (0xAB0109F824C81A70A6A683CF051E6222)
Название : Jack.ryan.shadow.recruit.2014.D.HDRip.AVC.ExKinoRay.mkv
Формат : Matroska
Формат version : Version 2
Размер файла : 2.18 GiB
Длительность : 1h 45mn
Общий Битрейт : 2 956 Kbps
Movie name : Jack Ryan from ExKinoRay
Encoded date : UTC 2014-05-10 19:52:13
Создано приложением : mkvmerge v4.9.1 ('Ich will') built on Jul 11 2011 23:53:15
Writing library : libebml v1.2.1 + libmatroska v1.1.1
Video
ID : 1
Формат : AVC
Формат/Info : Advanced Video Кодек
Формат profile : High@L4.1
Формат настройки, CABAC : Yes
Формат настройки, ReFrames : 8 frames
Кодек ID : V_MPEG4/ISO/AVC
Длительность : 1h 45mn
Битрейт : 2 187 Kbps
Width : 1 024 пикселей
Высота : 430 пикселей
Соотношение кадра : 2.40:1
Частота кадров : 23.976 fps
Цветопередача : YUV
Chroma subsampling : 4:2:0
Разрядность : 8 bits
Тип сканирования : Progressive
Bits/(Pixel*Frame) : 0.207
Размер потока : 1.57 GiB (72%)
Title : Enigma-Vladislav71
Writing library : x264 core 116 r2044 392e762
Encoding настройки : cabac=1 / ref=8 / deblock=1:-2:-1 / analyse=0x3:0x113 / me=umh / subme=9 / psy=1 / psy_rd=1.00:0.20 / mixed_ref=1 / me_range=32 / chroma_me=1 / trellis=2 / 8x8dct=1 / cqm=0 / deadzone=21,11 / fast_pskip=0 / chroma_qp_offset=-3 / threads=12 / sliced_threads=0 / nr=0 / decimate=0 / interlaced=0 / bluray_compat=0 / constrained_intra=0 / bframes=8 / b_pyramid=2 / b_adapt=2 / b_bias=0 / direct=3 / weightb=1 / open_gop=0 / weightp=2 / keyint=240 / keyint_min=23 / scenecut=40 / intra_refresh=0 / rc=2pass / mbtree=0 / bitrate=2187 / ratetol=1.0 / qcomp=0.60 / qpmin=0 / qpmax=69 / qpstep=4 / cplxblur=20.0 / qblur=0.5 / ip_ratio=1.40 / pb_ratio=1.30 / aq=1:1.00
Default : Yes
Forced : No
Audio #1
ID : 2
Формат : AC-3
Формат/Info : Audio Coding 3
Расширение режима : CM (complete main)
Кодек ID : A_AC3
Длительность : 1h 45mn
Битрейт mode : Constant
Битрейт : 320 Kbps
Каналы(s) : 2 канала
Каналы positions : Front: L R
Частота : 48.0 KHz
Разрядность : 16 bits
Режим сжатия : Lossy
Размер потока : 242 MiB (11%)
Title : DUB (Line)
Язык : Russian
Default : Yes
Forced : No
Audio #2
ID : 3
Формат : AC-3
Формат/Info : Audio Coding 3
Расширение режима : CM (complete main)
Кодек ID : A_AC3
Длительность : 1h 45mn
Битрейт mode : Constant
Битрейт : 448 Kbps
Каналы(s) : 6 каналов
Каналы positions : Front: L C R, Side: L R, LFE
Частота : 48.0 KHz
Разрядность : 16 bits
Режим сжатия : Lossy
Размер потока : 338 MiB (15%)
Язык : English
Default : No
Forced : No
Text #1
ID : 4
Формат : UTF-8
Кодек ID : S_TEXT/UTF8
Кодек ID/Info : UTF-8 Plain Text
Title : Forced
Default : No
Forced : No
Text #2
ID : 5
Формат : UTF-8
Кодек ID : S_TEXT/UTF8
Кодек ID/Info : UTF-8 Plain Text
Язык : English
Default : No
Forced : No
Text #3
ID : 6
Формат : UTF-8
Кодек ID : S_TEXT/UTF8
Кодек ID/Info : UTF-8 Plain Text
Title : SDH
Язык : English
Default : No
Forced : No
Menu
00:00:00.000 : en:00:00:00.000
00:05:45.470 : en:00:05:45.470
00:12:02.472 : en:00:12:02.472
00:18:11.007 : en:00:18:11.007
00:23:38.792 : en:00:23:38.792
00:31:19.795 : en:00:31:19.795
00:40:26.299 : en:00:40:26.299
00:48:47.466 : en:00:48:47.466
00:57:28.070 : en:00:57:28.070
01:06:19.642 : en:01:06:19.642
01:13:07.466 : en:01:13:07.466
01:21:53.867 : en:01:21:53.867
01:27:07.097 : en:01:27:07.097
01:35:21.507 : en:01:35:21.507
01:38:55.054 : en:01:38:55.054
Скриншот c названием фильма Скриншоты Трейлер Интересные факты
  • Первоначально на место режиссёра фильма был выбран Джек Бендер. Однако он ушёл с поста режиссёра из-за занятости на других проектах.
  • Также к режиссуре фильма проявляли интерес Фернанду Мейреллиш и Сэм Рэйми.
  • Крис Пайн является четвёртым актёром, исполняющим роль Джека Райана, после Алека Болдуина, Харрисона Форда и Бена Аффлека.
  • На роль Кэти Райан рассматривались Эванджелин Лилли, Фелисити Джонс, Кейт Бекинсэйл и Джессика Бил.
  • В написании сценария участвовали Энтони Пекхэм и Стивен Заиллян, но их имена не стали указывать в титрах.
Скачать

Скачать торрент!

Как скачивать? · Что такое торрент? · Рейтинг и ограничения

Сайт не распространяет и не хранит электронные версии произведений, а лишь предоставляет доступ к создаваемому пользователями каталогу ссылок на торрент-файлы, которые содержат только списки хеш-сумм

[Профиль] [ЛС]
Показать сообщения:    
Ответить на тему

Текущее время: Сегодня 07:07

Часовой пояс: GMT + 4



Вы не можете начинать темы
Вы не можете отвечать на сообщения
Вы не можете редактировать свои сообщения
Вы не можете удалять свои сообщения
Вы не можете голосовать в опросах
Вы не можете прикреплять файлы к сообщениям
Вы не можете скачивать файлы