Полный беспредел / Autoreiji: Biyondo / Outrage Beyond (Такеши Китано / Takeshi Kitano ) [2012, Япония, драма, криминал, BDRip-AVC] MVO + Original Jpn + Subs (Rus, Eng)

Ответить на тему
 
Автор Сообщение

user ®

Стаж: 11 лет

Сообщений: 15151

Пост Пост: #1 от 11-Май-2014 16:20

[Цитировать]

-Полный беспредел / Autoreiji: Biyondo / Outrage Beyond Страна: Япония
Жанр: драма, криминал
Год выпуска: 2012
Продолжительность: 01:52:21-Перевод 1: Профессиональный (многоголосый закадровый)
Cубтитры: английские, русские |Full - Артём Прожога| Спасибо - maxwelex
Оригинальная аудиодорожка: японский -Режиссер: Такеши Китано / Takeshi Kitano-В ролях-Такеши Китано, Рё Касэ, Сюн Сугата, Тосиюки Нисида, Мачико Оно, Кен Мицуйси, Фумиё Кохината, Ютака Мацусигэ, Кента Киритани, Томокадзу Миура-Описание-Криминальная семья Санно выросла в огромную организацию, чья власть распространилась на политику и крупный легальный бизнес. Амбициозный детектив Катаока при помощи тайных заговоров и грязных трюков провоцирует конфликт Между Санно и их давними врагами Ханабиши, надеясь, что они окончательно уничтожат друг друга. Но козырем в руках Катаоки может стать тот факт, что из тюрьмы готовится выйти Отомо, босс семьи, когда-то раздавленной Санно, которого многие считали мертвым. Неожиданное возвращение Отомо сеет еще больше лжи и предательства между семьям. Невозможно угадать, кто одержит верх в этой свирепой схватке за власть.-Качество видео: BDRip
Исходное видео: Blu-ray |HDClub|-Контейнер: MKV-Видео: AVC, 1146x478 (2,40:1), ~2500 kbps, 24,000 fps,
Аудио: AC-3, 448 kbps, Dolby Digital, 3/2 (L,C,R,l,r) + LFE ch, 48 KHz |MVO|
Аудио: AC-3, 448 kbps, Dolby Digital, 3/2 (L,C,R,l,r) + LFE ch, 48 KHz |Original|
Формат субтитров: softsub (SRT)
Главы: есть--

MediaInfo
x264
VIDEO ENCODING
------------------------------
Encoding video to: F:\Temp\0183.264
x264 Q17.4 1920x1080 24.000fps (161793 frames)
avs4x264.exe: -L x264_64.exe --crf 17.4 --preset veryslow --profile high --level 4.1 --ref 15 --aq-mode 2 --aq-strength 0.85 --deblock -2:-2 --merange 32 --bframes 14 --psy-rd 0.95:0.00 --qcomp 0.65 --vbv-maxrate 50000 --vbv-bufsize 62500 --subme 11 --no-mbtree --keyint 240 --slices 4 --sar 1:1 --output "F:\Temp\0183.264" "F:\Temp\0183.avs"
raw [info]: 1146x478p 1:1 @ 10000000/416667 fps (cfr)
x264 [info]: using SAR=1/1
x264 [info]: using cpu capabilities: MMX2 SSE2Fast LZCNT
x264 [info]: profile High, level 4.1
x264 [info]: frame I:1018 Avg QP:14.99 size: 86412
x264 [info]: frame P:31416 Avg QP:16.86 size: 26843
x264 [info]: frame B:129359 Avg QP:18.99 size: 9068
x264 [info]: consecutive B-frames: 1.0% 1.6% 3.0% 18.8% 15.9% 46.3% 6.9% 2.1% 1.7% 0.7% 0.6% 0.6% 0.3% 0.1% 0.4%
x264 [info]: mb I I16..4: 5.6% 74.7% 19.7%
x264 [info]: mb P I16..4: 0.4% 5.7% 0.7% P16..4: 31.3% 35.3% 16.1% 2.3% 0.3% skip: 7.9%
x264 [info]: mb B I16..4: 0.0% 0.6% 0.1% B16..8: 33.9% 19.2% 3.4% direct: 4.8% skip:38.1% L0:44.3% L1:43.2% BI:12.5%
x264 [info]: 8x8 transform intra:81.9% inter:53.9%
x264 [info]: direct mvs spatial:100.0% temporal:0.0%
x264 [info]: coded y,uvDC,uvAC intra: 85.4% 86.1% 76.3% inter: 21.2% 21.8% 8.5%
x264 [info]: i16 v,h,dc,p: 39% 19% 17% 25%
x264 [info]: i8 v,h,dc,ddl,ddr,vr,hd,vl,hu: 9% 10% 16% 9% 11% 11% 11% 10% 14%
x264 [info]: i4 v,h,dc,ddl,ddr,vr,hd,vl,hu: 13% 14% 9% 8% 12% 11% 11% 9% 14%
x264 [info]: i8c dc,h,v,p: 50% 23% 15% 12%
x264 [info]: Weighted P-Frames: Y:1.5% UV:0.6%
x264 [info]: ref P L0: 38.9% 7.3% 17.6% 7.0% 6.3% 4.6% 4.5% 2.4% 2.3% 1.8% 1.8% 1.4% 1.5% 1.2% 1.3% 0.1%
x264 [info]: ref B L0: 62.9% 13.5% 6.8% 3.7% 2.8% 2.6% 2.1% 1.3% 1.0% 1.0% 0.8% 0.8% 0.5% 0.3%
x264 [info]: ref B L1: 90.1% 9.9%
x264 [info]: kb/s:2497.18
Формат : Matroska
Версия формата : Version 2
Размер файла : 2,67 Гбайт
Продолжительность : 1 ч. 52 м.
Общий поток : 3396 Кбит/сек
Название фильма : Полный беспредел / Autoreiji: Biyondo / Outrage Beyond
Дата кодирования : UTC 2014-05-11 10:19:20
Программа кодирования : mkvmerge v5.5.0 ('Healer') built on Apr 24 2012 23:47:03
Библиотека кодирования : libebml v1.2.3 + libmatroska v1.3.0
Видео
Идентификатор : 1
Формат : AVC
Формат/Информация : Advanced Video Codec
Профиль формата : High@L4.1
Параметр CABAC формата : Да
Параметр ReFrames формата : 15 кадров
Идентификатор кодека : V_MPEG4/ISO/AVC
Продолжительность : 1 ч. 52 м.
Битрейт : 2432 Кбит/сек
Ширина : 1146 пикселей
Высота : 478 пикселей
Соотношение сторон : 2,40:1
Частота кадров : 24,000 кадра/сек
Цветовое пространство : YUV
Субдискретизация насыщенности : 4:2:0
Битовая глубина : 8 бит
Тип развёртки : Прогрессивная
Бит/(Пиксели*Кадры) : 0.185
Размер потока : 1,91 Гбайт (72%)
Заголовок : Outrage.Beyond.2012_BDRip_cw
Библиотека кодирования : x264 core 142 r2389 956c8d8
Настройки программы : cabac=1 / ref=15 / deblock=1:-2:-2 / analyse=0x3:0x133 / me=umh / subme=11 / psy=1 / psy_rd=0.95:0.00 / mixed_ref=1 / me_range=32 / chroma_me=1 / trellis=2 / 8x8dct=1 / cqm=0 / deadzone=21,11 / fast_pskip=1 / chroma_qp_offset=-2 / threads=4 / lookahead_threads=1 / sliced_threads=0 / slices=4 / nr=0 / decimate=1 / interlaced=0 / bluray_compat=0 / constrained_intra=0 / bframes=14 / b_pyramid=2 / b_adapt=2 / b_bias=0 / direct=3 / weightb=1 / open_gop=0 / weightp=2 / keyint=240 / keyint_min=23 / scenecut=40 / intra_refresh=0 / rc_lookahead=60 / rc=crf / mbtree=0 / crf=17.4 / qcomp=0.65 / qpmin=0 / qpmax=69 / qpstep=4 / vbv_maxrate=50000 / vbv_bufsize=62500 / crf_max=0.0 / nal_hrd=none / filler=0 / ip_ratio=1.40 / pb_ratio=1.30 / aq=2:0.85
Язык : Russian
Default : Да
Forced : Нет
Аудио #1
Идентификатор : 2
Формат : AC-3
Формат/Информация : Audio Coding 3
Расширение режима : CM (complete main)
Параметр Endianness формата : Big
Идентификатор кодека : A_AC3
Продолжительность : 1 ч. 52 м.
Вид битрейта : Постоянный
Битрейт : 448 Кбит/сек
Каналы : 6 каналов
Расположение каналов : Front: L C R, Side: L R, LFE
Частота : 48,0 КГц
Битовая глубина : 16 бит
Метод сжатия : С потерями
Размер потока : 360 Мбайт (13%)
Заголовок : MVO
Язык : Russian
Default : Да
Forced : Нет
Аудио #2
Идентификатор : 3
Формат : AC-3
Формат/Информация : Audio Coding 3
Расширение режима : CM (complete main)
Параметр Endianness формата : Big
Идентификатор кодека : A_AC3
Продолжительность : 1 ч. 52 м.
Вид битрейта : Постоянный
Битрейт : 448 Кбит/сек
Каналы : 6 каналов
Расположение каналов : Front: L C R, Side: L R, LFE
Частота : 48,0 КГц
Битовая глубина : 16 бит
Метод сжатия : С потерями
Размер потока : 360 Мбайт (13%)
Заголовок : Оригинал
Язык : Japanese
Default : Нет
Forced : Нет
Текст #1
Идентификатор : 4
Формат : UTF-8
Идентификатор кодека : S_TEXT/UTF8
Идентификатор кодека/Информация : UTF-8 Plain Text
Заголовок : Full - Артём Прожога
Язык : Russian
Default : Да
Forced : Нет
Текст #2
Идентификатор : 5
Формат : UTF-8
Идентификатор кодека : S_TEXT/UTF8
Идентификатор кодека/Информация : UTF-8 Plain Text
Язык : English
Default : Нет
Forced : Нет
Меню
00:00:00.000 : en:
00:00:47.000 : en:
00:12:00.000 : en:
00:23:26.000 : en:
00:34:59.000 : en:
00:48:59.000 : en:
01:07:28.000 : en:
01:21:37.000 : en:
01:38:06.000 : en:
Скриншоты
Сравнение с исходником
Кроп нечетный, по кругу (3, 141, -3, -141 разница аспектов - 0.001%). Посему, не могу, не соображу как, показать сравнения. Вот, может так http://screenshotcomparison.com/comparison/74182/picture:0
Скачать

Скачать торрент! Полный беспредел / Autoreiji: Biyondo / Outrage Beyond (Такеши Китано / Takeshi Kitano ) [2012, Япония, драма, криминал, BDRip-AVC] MVO + Original Jpn + Subs (Rus, Eng)

Как скачивать? · Что такое торрент? · Рейтинг и ограничения

Сайт не распространяет и не хранит электронные версии произведений, а лишь предоставляет доступ к создаваемому пользователями каталогу ссылок на торрент-файлы, которые содержат только списки хеш-сумм

[Профиль] [ЛС]
Показать сообщения:    
Ответить на тему

Текущее время: Сегодня 16:15

Часовой пояс: GMT + 4



Вы не можете начинать темы
Вы не можете отвечать на сообщения
Вы не можете редактировать свои сообщения
Вы не можете удалять свои сообщения
Вы не можете голосовать в опросах
Вы не можете прикреплять файлы к сообщениям
Вы не можете скачивать файлы