Горько! (Жора Крыжовников) [2013, комедия, приключения, BDRip 1080p ]

Ответить на тему
 
Автор Сообщение

user ®

Стаж: 7 лет 7 месяцев

Сообщений: 20008

Пост Пост: #1 от 11-Май-2014 16:20

[Цитировать]

Горько!- Страна: Россия
Язык: Русский
Жанр: комедия, приключения
Год выпуска: 2013
Продолжительность: 01:40:43
Субтитры: Нет
Режиссёр: Жора Крыжовников
В ролях: Сергей Светлаков, Юлия Александрова, Егор Корешков, Ян Цапник, Данила Якушев, Юлия Сулес, Елена Валюшкина, Александр Паль, Сергей Лавыгин, Анастасия Добахова, Валентина Мазунина, Владимир Тебенко, Евгений Кушпель, Василий Кортуков, Максим КазаковОписание: Наташа и Рома решают провести сразу две свадьбы: одну в русской традиции - для консервативных родителей и родных, а вторую в европейском стиле – для себя и друзей. Но по нелепой случайности оба торжества сливаются воедино... Качество видео: BDRip 1080p -CMEGRoup
Контейнер: MKV
Видео: MPEG-4 AVC, 10.1 Mбит/с, 1920x1080
Аудио: Russian AC3, 6 ch, 640 Кбит/с
MI
x264 [info]: frame I:2288 Avg QP:17.57 size:162454
x264 [info]: frame P:92992 Avg QP:20.57 size: 62700
x264 [info]: frame B:49755 Avg QP:21.93 size: 22203
Формат : Matroska
Версия формата : Version 4 / Version 2
Размер файла : 7,56 Гбайт
Продолжительность : 1 ч. 40 м.
Общий поток : 10,7 Мбит/сек
Название фильма : CMEGRoup
Дата кодирования : UTC 2014-05-10 03:11:04
Программа кодирования : mkvmerge v6.9.1 ('Blue Panther') 64bit built on Apr 18 2014 18:23:38
Библиотека кодирования : libebml v1.3.0 + libmatroska v1.4.1
Видео
Идентификатор : 1
Формат : AVC
Формат/Информация : Advanced Video Codec
Профиль формата : High@L4.1
Параметр CABAC формата : Да
Параметр ReFrames формата : 4 кадра
Идентификатор кодека : V_MPEG4/ISO/AVC
Продолжительность : 1 ч. 40 м.
Битрейт : 10,1 Мбит/сек
Ширина : 1920 пикселей
Высота : 1080 пикселей
Соотношение сторон : 16:9
Режим частоты кадров : Постоянный
Частота кадров : 24,000 кадра/сек
Цветовое пространство : YUV
Субдискретизация насыщенности : 4:2:0
Битовая глубина : 8 бит
Тип развёртки : Прогрессивная
Бит/(Пиксели*Кадры) : 0.203
Размер потока : 6,96 Гбайт (92%)
Библиотека кодирования : x264 core 142 r2409 d6b4e63
Настройки программы : cabac=1 / ref=4 / deblock=1:-3:-2 / analyse=0x3:0x113 / me=umh / subme=11 / psy=1 / psy_rd=1.00:0.00 / mixed_ref=1 / me_range=32 / chroma_me=1 / trellis=2 / 8x8dct=1 / cqm=0 / deadzone=21,11 / fast_pskip=1 / chroma_qp_offset=-2 / threads=12 / lookahead_threads=1 / sliced_threads=0 / nr=0 / decimate=1 / interlaced=0 / bluray_compat=0 / constrained_intra=0 / bframes=5 / b_pyramid=2 / b_adapt=1 / b_bias=0 / direct=2 / weightb=1 / open_gop=0 / weightp=2 / keyint=240 / keyint_min=24 / scenecut=40 / intra_refresh=0 / rc_lookahead=40 / rc=2pass / mbtree=1 / bitrate=10100 / ratetol=1.0 / qcomp=0.60 / qpmin=0 / qpmax=69 / qpstep=4 / cplxblur=20.0 / qblur=0.5 / vbv_maxrate=62500 / vbv_bufsize=78125 / nal_hrd=none / filler=0 / ip_ratio=1.40 / aq=1:1.00 / zones=138899,145034,q=40
Язык : English
Default : Да
Forced : Нет
Аудио
Идентификатор : 2
Формат : AC-3
Формат/Информация : Audio Coding 3
Расширение режима : CM (complete main)
Параметр Endianness формата : Big
Идентификатор кодека : A_AC3
Продолжительность : 1 ч. 40 м.
Вид битрейта : Постоянный
Битрейт : 640 Кбит/сек
Каналы : 6 каналов
Расположение каналов : Front: L C R, Side: L R, LFE
Частота : 48,0 КГц
Битовая глубина : 16 бит
Метод сжатия : С потерями
Размер потока : 461 Мбайт (6%)
Язык : Russian
Default : Да
Forced : Нет
Меню
00:00:00.000 : en:00:00:00.000
00:10:25.125 : en:00:10:25.125
00:17:56.625 : en:00:17:56.625
00:28:33.375 : en:00:28:33.375
00:32:24.917 : en:00:32:24.917
00:46:12.667 : en:00:46:12.667
00:53:49.958 : en:00:53:49.958
01:04:03.542 : en:01:04:03.542
01:12:21.333 : en:01:12:21.333
01:23:55.958 : en:01:23:55.958
01:33:57.958 : en:01:33:57.958
Скриншоты
Скачать

Скачать торрент!

Как скачивать? · Что такое торрент? · Рейтинг и ограничения

Сайт не распространяет и не хранит электронные версии произведений, а лишь предоставляет доступ к создаваемому пользователями каталогу ссылок на торрент-файлы, которые содержат только списки хеш-сумм

[Профиль] [ЛС]
Показать сообщения:    
Ответить на тему

Текущее время: Сегодня 00:05

Часовой пояс: GMT + 4



Вы не можете начинать темы
Вы не можете отвечать на сообщения
Вы не можете редактировать свои сообщения
Вы не можете удалять свои сообщения
Вы не можете голосовать в опросах
Вы не можете прикреплять файлы к сообщениям
Вы не можете скачивать файлы