Охотники за сокровищами / The Monuments Men (Джордж Клуни / George Clooney) [2014, США, Германия, военный, драма, комедия, BDRip-AVC] DUB (Line)

Ответить на тему
 
Автор Сообщение

user ®

Стаж: 7 лет 7 месяцев

Сообщений: 20008

Пост Пост: #1 от 11-Май-2014 16:20

[Цитировать]

Охотники за сокровищами | The Monuments Men- Год выпуска: 2014
Страна: США, Германия
Жанр: военный, драма, комедия
Продолжительность: 01:58:23
Перевод:

  • Профессиональный (дублированный) (Line)
    Субтитры: нет-Режиссер: Джордж Клуни / George Clooney-В ролях: Джордж Клуни / George Clooney, Мэтт Дэймон / Matt Damon, Билл Мюррей / Bill Murray, Джон Гудман / John Goodman, Жан Дюжарден / Jean Dujardin, Боб Бэлабан / Bob Balaban, Хью Бонневилль / Hugh Bonneville, Кейт Бланшетт / Cate Blanchett, Димитрий Леонидас / Dimitri Leonidas, Юстус фон Донаньи / Justus von Dohnanyi, Хольгер Хандтке / Holger Handtke ...-Описание: Фильм основан на реальных событиях — величайшей охоте на сокровища в истории. Во время Второй мировой войны команда из искусствоведов и хранителей музеев объединяется, чтобы спасти известные произведения искусства, похищенные нацистами, прежде чем те успеют их уничтожить.-Kinopoisk | IMDB | Sample-Качество: BDRip-AVC | [The.Monuments.Men.2014.1080p.BluRay.ReMuX.AVC.DTS-HD.MA.5.1-R2D2]
    Формат: MKV
    Видео кодек: x264
    Аудио кодек: AC3
    Видео: 1056х440 (2.40:1) | 23,976fps | 1301Kbps | Bits/(Pixel*Frame) : 0.117
    Аудио: AC3 | 2ch | 48kHz | 320kbps | [Line]-

    MediaInfo / log x264
    logx264
x264 [info]: frame I:1218 Avg QP:18.12 size: 58332 PSNR Mean Y:45.53 U:48.18 V:48.89 Avg:46.24 Global:43.01
x264 [info]: frame P:31467 Avg QP:19.68 size: 17244 PSNR Mean Y:43.79 U:47.11 V:47.91 Avg:44.62 Global:41.87
x264 [info]: frame B:137619 Avg QP:22.14 size: 4134 PSNR Mean Y:43.22 U:46.92 V:47.81 Avg:44.10 Global:40.91
x264 [info]: consecutive B-frames: 1.0% 1.0% 3.2% 18.5% 16.0% 31.9% 8.5% 11.6% 1.8% 1.6% 3.0% 1.5% 0.4%
x264 [info]: mb I I16..4: 7.9% 71.3% 20.8%
x264 [info]: mb P I16..4: 0.3% 5.0% 1.0% P16..4: 33.4% 37.2% 12.6% 1.9% 0.2% skip: 8.4%
x264 [info]: mb B I16..4: 0.0% 0.3% 0.1% B16..8: 34.0% 15.0% 2.1% direct: 2.6% skip:46.0% L0:42.5% L1:48.6% BI: 8.9%
x264 [info]: 8x8 transform intra:77.0% inter:59.1%
x264 [info]: direct mvs spatial:99.8% temporal:0.2%
x264 [info]: coded y,uvDC,uvAC intra: 90.8% 88.7% 70.7% inter: 13.6% 10.8% 2.1%
x264 [info]: i16 v,h,dc,p: 26% 15% 14% 45%
x264 [info]: i8 v,h,dc,ddl,ddr,vr,hd,vl,hu: 15% 8% 8% 9% 12% 12% 12% 11% 13%
x264 [info]: i4 v,h,dc,ddl,ddr,vr,hd,vl,hu: 16% 9% 4% 8% 13% 14% 12% 11% 12%
x264 [info]: i8c dc,h,v,p: 43% 21% 20% 16%
x264 [info]: Weighted P-Frames: Y:5.3% UV:2.9%
x264 [info]: ref P L0: 45.7% 10.3% 17.8% 6.2% 5.6% 3.9% 3.7% 1.8% 1.9% 1.5% 1.6% 0.1% 0.0%
x264 [info]: ref B L0: 72.6% 11.8% 5.8% 2.9% 2.1% 1.8% 1.4% 0.9% 0.5% 0.3%
x264 [info]: ref B L1: 92.2% 7.8%
x264 [info]: SSIM Mean Y:0.9787592 (16.728db)
x264 [info]: PSNR Mean Y:43.346 U:46.963 V:47.833 Avg:44.215 Global:41.082
Video
ID : 1
Format : AVC
Format/Info : Advanced Video Codec
Format profile : High@L4.1
Format settings, CABAC : Yes
Format settings, ReFrames : 11 frames
Codec ID : V_MPEG4/ISO/AVC
Duration : 1h 58mn
Bit rate : 1 301 Kbps
Width : 1 056 pixels
Height : 440 pixels
Display aspect ratio : 2.40:1
Frame rate mode : Constant
Frame rate : 23.976 fps
Color space : YUV
Chroma subsampling : 4:2:0
Bit depth : 8 bits
Scan type : Progressive
Bits/(Pixel*Frame) : 0.117
Stream size : 1.08 GiB (79%)
Writing library : x264 core 142 r2431+42 c69a006 tMod [8-bit@all X86]
Encoding settings : cabac=1 / ref=11 / deblock=1:-2:-1 / analyse=0x3:0x133 / me=umh / subme=11 / psy=1 / fade_compensate=0.00 / psy_rd=1.02:0.20 / mixed_ref=1 / me_range=32 / chroma_me=1 / trellis=2 / 8x8dct=1 / cqm=0 / deadzone=21,11 / fast_pskip=0 / chroma_qp_offset=-3 / threads=6 / lookahead_threads=1 / sliced_threads=0 / nr=0 / decimate=1 / interlaced=0 / bluray_compat=0 / constrained_intra=0 / fgo=0 / bframes=12 / b_pyramid=2 / b_adapt=2 / b_bias=0 / direct=3 / weightb=1 / open_gop=0 / weightp=2 / keyint=240 / keyint_min=24 / scenecut=40 / intra_refresh=0 / rc_lookahead=40 / rc=crf / mbtree=0 / crf=19.8220 / qcomp=0.70 / qpmin=10:10:10 / qpmax=51:51:51 / qpstep=4 / vbv_maxrate=50000 / vbv_bufsize=62500 / crf_max=0.0 / nal_hrd=none / filler=0 / ip_ratio=1.40 / pb_ratio=1.30 / aq=1:1.00 / aq-sensitivity=10.00 / aq-factor=1.00:1.00:1.00 / aq2=0 / aq3=0 / zones=161318,170302,q=40
Default : Yes
Forced : No
Matrix coefficients : BT.709
Audio
ID : 2
Format : AC-3
Format/Info : Audio Coding 3
Mode extension : CM (complete main)
Format settings, Endianness : Big
Codec ID : A_AC3
Duration : 1h 58mn
Bit rate mode : Constant
Bit rate : 320 Kbps
Channel count : 2 channels
Channel positions : Front: L R
Sampling rate : 48.0 KHz
Bit depth : 16 bits
Compression mode : Lossy
Stream size : 271 MiB (19%)
Title : DUB (Line)
Language : Russian
Default : Yes
Forced : No
Menu
00:00:00.000 : en:
00:04:41.572 : en:
00:16:01.961 : en:
00:20:13.962 : en:
00:23:37.457 : en:
00:27:12.839 : en:
00:31:36.811 : en:
00:40:37.977 : en:
00:50:40.579 : en:
00:53:31.374 : en:
00:59:36.447 : en:
01:00:52.815 : en:
01:17:06.913 : en:
01:21:50.530 : en:
01:33:08.332 : en:
01:46:26.671 : en:

-
Скриншоты -
Скачать

Скачать торрент!

Как скачивать? · Что такое торрент? · Рейтинг и ограничения

Сайт не распространяет и не хранит электронные версии произведений, а лишь предоставляет доступ к создаваемому пользователями каталогу ссылок на торрент-файлы, которые содержат только списки хеш-сумм

[Профиль] [ЛС]
Показать сообщения:    
Ответить на тему

Текущее время: Сегодня 18:22

Часовой пояс: GMT + 4



Вы не можете начинать темы
Вы не можете отвечать на сообщения
Вы не можете редактировать свои сообщения
Вы не можете удалять свои сообщения
Вы не можете голосовать в опросах
Вы не можете прикреплять файлы к сообщениям
Вы не можете скачивать файлы