Маленькие негодяи спасают положение / The Little Rascals Save the Day (Алекс Замм / Alex Zamm) [2014, США, комедия, семейный, HDRip] Dub

Ответить на тему
 
Автор Сообщение

user ®

Стаж: 7 лет 7 месяцев

Сообщений: 20008

Пост Пост: #1 от 11-Май-2014 11:30

[Цитировать]

Маленькие негодяи спасают положение / The Little Rascals Save the Day
Страна: США
Жанр: комедия, семейный
Год выпуска: 2014
Продолжительность: 01:37:50
Перевод: Профессиональный (дублированный) лицензия
Cубтитры: нет
Оригинальная аудиодорожка: нет
Режиссер: Алекс Замм / Alex Zamm
В ролях: Дорис Робертс, Грег Джерманн, Лекс Медлин, Валери Эзлинн, Джет Юргенсмейер, Дрю Джастис, Коннор Берри, Дженна Ортега, Айзиа Фредерикс, Кемден Грэй
Описание: «Маленькие негодяи» — серия комедийных фильмов о группе соседских мальчиков и девочек и об их приключениях вместе.
Доп. информация:
Kinopoisk
IMDB
Sample
Качество видео: HDRip
Формат видео: AVI
Видео: Xvid 720x400 23.976fps 1 590 Kbps
Аудио: Dolby AC3 48000Hz 6ch 448kbps
MediaInfo
General
Complete name : D:\The.Little.Rascals.Save.the.Day.2014.HDRip.avi
Format : AVI
Format/Info : Audio Video Interleave
File size : 1.46 GiB
Duration : 1h 37mn
Overall bit rate : 2 132 Kbps
Writing application : VirtualDubMod 1.5.10.2 (build 2540/release)
Writing library : VirtualDubMod build 2540/release
Video
ID : 0
Format : MPEG-4 Visual
Format profile : Advanced Simple@L5
Format settings, BVOP : Yes
Format settings, QPel : No
Format settings, GMC : No warppoints
Format settings, Matrix : Custom
Codec ID : XVID
Codec ID/Hint : XviD
Duration : 1h 37mn
Bit rate : 1 590 Kbps
Width : 720 pixels
Height : 400 pixels
Display aspect ratio : 16:9
Frame rate : 23.976 fps
Color space : YUV
Chroma subsampling : 4:2:0
Bit depth : 8 bits
Scan type : Progressive
Compression mode : Lossy
Bits/(Pixel*Frame) : 0.230
Stream size : 1.09 GiB (75%)
Writing library : XviD 1.2.1 (UTC 2008-12-04)
Audio
ID : 1
Format : AC-3
Format/Info : Audio Coding 3
Mode extension : CM (complete main)
Format settings, Endianness : Big
Codec ID : 2000
Duration : 1h 37mn
Bit rate mode : Constant
Bit rate : 448 Kbps
Channel count : 6 channels
Channel positions : Front: L C R, Side: L R, LFE
Sampling rate : 48.0 KHz
Bit depth : 16 bits
Compression mode : Lossy
Stream size : 313 MiB (21%)
Alignment : Split accross interleaves
Скриншот c названием фильма Скриншоты
Скачать

Скачать торрент!

Как скачивать? · Что такое торрент? · Рейтинг и ограничения

Сайт не распространяет и не хранит электронные версии произведений, а лишь предоставляет доступ к создаваемому пользователями каталогу ссылок на торрент-файлы, которые содержат только списки хеш-сумм

[Профиль] [ЛС]
Показать сообщения:    
Ответить на тему

Текущее время: Сегодня 14:10

Часовой пояс: GMT + 4



Вы не можете начинать темы
Вы не можете отвечать на сообщения
Вы не можете редактировать свои сообщения
Вы не можете удалять свои сообщения
Вы не можете голосовать в опросах
Вы не можете прикреплять файлы к сообщениям
Вы не можете скачивать файлы