Там, на неведомых дорожках... (Михаил Юзовский) [1982 г., сказка, семейный, DVDRip]

Ответить на тему
 
Автор Сообщение

user ®

Стаж: 7 лет 7 месяцев

Сообщений: 20008

Пост Пост: #1 от 11-Май-2014 02:00

[Цитировать]

-Там, на неведомых дорожках...--Год выпуска: 1982
Жанр: сказка, семейный
Продолжительность: 01:06:24--Режиссер: Михаил Юзовский--В ролях:
Олег Федулов, Роман Монастырский, Татьяна Пелттсер, Леонид Харитонов, Юрий Чернов, Анатолий Кузнецов, Александр Филиппенко, Юрий Медведев, Анастасья Зуева, Леонид Каневский, Олег Анофриев, Наталья Крачковская, Елизавета Никищихина
--Описание:
Школьник Митя, приехав на каникулы в деревню, попадает в волшебную страну, где вместе с героями любимых книжек вступает в борьбу со всеми сказочными злодеями: Кащеем Бессмертным, Соловьем-Разбойником. И даже Лихо Одноглазое удалось одолеть смельчакам!-Эта веселая, остроумная и поучительная сказка поставлена по известной книге Эдуарда Успенского "Вниз по волшебной реке..."
Отправляясь на каникулы к бабушке в деревню, мальчик Митя не знал, что ему предстоит стать участником необыкновенных приключений в сказочной стране.
-Доп. информация:- -Сэмпл Рип совместим с бытовыми DVD-проигрывателями.--Качество видео: DVDRip
Формат видео: AVI
Видео: Video: 688x512 (1.34:1), 25 fps, XviD build 73 ~1892 kbps avg, 0.215 bit/pixel
Аудио: 48 kHz, AC3 Dolby Digital, 3/2 (L,C,R,l,r) + LFE ch, 448 kbps-
MediaInfo
General
Complete name : \Tam_na_nevedomych_dorojkach_(1982).DVDRip.XviD.ac3_[All.Films][RG].avi
Format : AVI
Format/Info : Audio Video Interleave
File size : 1.09 GiB
Duration : 1h 6mn
Overall bit rate : 2 349 Kbps
Movie name : Там, на неведомых дорожках (1982) DVDRip | [All.Films][RG]
Director : |
Writing application : VirtualDubMod 1.5.10.3 | www.virtualdub-fr.org || (build 2550/release)
Video
ID : 0
Format : MPEG-4 Visual
Format profile : Advanced Simple@L5
Format settings, BVOP : 2
Format settings, QPel : No
Format settings, GMC : No warppoints
Format settings, Matrix : Custom
Codec ID : XVID
Codec ID/Hint : XviD
Duration : 1h 6mn
Bit rate : 1 892 Kbps
Width : 688 pixels
Height : 512 pixels
Display aspect ratio : 4:3
Frame rate : 25.000 fps
Color space : YUV
Chroma subsampling : 4:2:0
Bit depth : 8 bits
Scan type : Progressive
Compression mode : Lossy
Bits/(Pixel*Frame) : 0.215
Stream size : 899 MiB (81%)
Writing library : XviD 73
Audio
ID : 1
Format : AC-3
Format/Info : Audio Coding 3
Mode extension : CM (complete main)
Format settings, Endianness : Big
Codec ID : 2000
Duration : 1h 6mn
Bit rate mode : Constant
Bit rate : 448 Kbps
Channel count : 6 channels
Channel positions : Front: L C R, Side: L R, LFE
Sampling rate : 48.0 KHz
Bit depth : 16 bits
Compression mode : Lossy
Stream size : 213 MiB (19%)
Alignment : Split accross interleaves
Interleave, duration : 40 ms (1.00 video frame)
Interleave, preload duration : 500 ms
Скриншоты
Скачать

Скачать торрент!

Как скачивать? · Что такое торрент? · Рейтинг и ограничения

Сайт не распространяет и не хранит электронные версии произведений, а лишь предоставляет доступ к создаваемому пользователями каталогу ссылок на торрент-файлы, которые содержат только списки хеш-сумм

[Профиль] [ЛС]
Показать сообщения:    
Ответить на тему

Текущее время: Сегодня 09:57

Часовой пояс: GMT + 4



Вы не можете начинать темы
Вы не можете отвечать на сообщения
Вы не можете редактировать свои сообщения
Вы не можете удалять свои сообщения
Вы не можете голосовать в опросах
Вы не можете прикреплять файлы к сообщениям
Вы не можете скачивать файлы