Легион / Casshern (Казуаки Кирия / Kazuaki Kiriya) [2004, Япония, фантастика, приключения, боевик, HDRip] DVO

Ответить на тему
 
Автор Сообщение

user ®

Стаж: 11 лет

Сообщений: 15151

Пост Пост: #1 от 10-Май-2014 18:00

[Цитировать]

Легион / Casshern- -Страна: Япония
Жанр: фантастика, приключения, боевик
Год выпуска: 2004
Продолжительность: 2:22:19-Перевод: Профессиональный (двухголосый закадровый) [R5]-Cубтитры: нет
Оригинальная аудиодорожка: нет
Режиссер: Казуаки Кирия / Kazuaki Kiriya
В ролях: Юсукэ Исейа, Кумико Асо, Акира Тэрао, Канако Хигути, Фумиё Кохината, Хироюки Миясако, Маюми Сэда, Дзюн Канамэ, Хидэтоси Нисидзима, Мицухиро Оикава
Описание: В далеком будущем Азия стала центром мировой экономики. Полицейские оккупационные власти руководят странами Евразии, жестоко подавляя любые попытки сопротивления. На далеких фронтах не утихает война, природные ресурсы на исходе, и даже в мирных городах Японии лютуют страшные болезни.
В связи с возрастающим уровнем смертности населения, правительство решает одобрить новый проект доктора Азумы, лучшего специалиста в области генной инженерии. Суть эксперимента предельно проста — выращивать любые человеческие органы и части тел, и пересаживать их людям в случае надобности. Но проект завершается неудачей — выращенные Азумой тела оживают! Армия клонов развязывает войну против своих же создателей. У человечества остается лишь одна надежда на спасение: Тэтсио — сын доктора Азумы.
Погибший на войне, и вернувшийся к жизни благодаря эксперименту отца, Тэтсио наделен необычайной силой, а его тело заключено в особый сверхпрочный скафандр, что делает его практически неуязвимым…
Релиз от -
Сэмпл: http://multi-up.com/972767
Качество видео: HDRip
Формат видео: AVI
Видео: MPEG-4 Visual at 1269 Кбит/сек; 720 x 304 (2.368) at 23.976 fps
Аудио: AC-3 at 192 Кбит/сек; 2 канала, 48,0 КГц
Автор:
MediaInfo
Общее
Полное имя : D:\Фильмы\Азиатские\Легион\Casshern 2004.HDRip.XviD.1400MB. rip by [Assassin's Creed].avi
Формат : AVI
Формат/Информация : Audio Video Interleave
Размер файла : 1,46 Гбайт
Продолжительность : 2 ч. 22 м.
Общий поток : 1471 Кбит/сек
Программа кодирования : VirtualDubMod 1.5.10.3 | www.virtualdub-fr.org || (build 2550/release)
Библиотека кодирования : VirtualDubMod build 2550/release
Видео
Идентификатор : 0
Формат : MPEG-4 Visual
Профиль формата : Advanced Simple@L5
Параметр BVOP формата : 1
Параметр QPel формата : Нет
Параметр GMC формата : Без точки перехода
Параметр матрицы формата : Default (MPEG)
Идентификатор кодека : XVID
Идентификатор кодека/Подсказка : XviD
Продолжительность : 2 ч. 22 м.
Битрейт : 1269 Кбит/сек
Ширина : 720 пикселей
Высота : 304 пикселя
Соотношение сторон : 2,35:1
Частота кадров : 23,976 кадра/сек
Цветовое пространство : YUV
Субдискретизация насыщенности : 4:2:0
Битовая глубина : 8 бит
Тип развёртки : Прогрессивная
Метод сжатия : С потерями
Бит/(Пиксели*Кадры) : 0.242
Размер потока : 1,26 Гбайт (86%)
Библиотека кодирования : XviD 1.2.1 (UTC 2008-12-04)
Аудио
Идентификатор : 1
Формат : AC-3
Формат/Информация : Audio Coding 3
Расширение режима : CM (complete main)
Параметр Endianness формата : Big
Идентификатор кодека : 2000
Продолжительность : 2 ч. 22 м.
Вид битрейта : Постоянный
Битрейт : 192 Кбит/сек
Каналы : 2 канала
Расположение каналов : Front: L R
Частота : 48,0 КГц
Битовая глубина : 16 бит
Метод сжатия : С потерями
Размер потока : 195 Мбайт (13%)
Выравнивание : Разделение по промежуткам
Продолжительность промежутка : 42 мс. (1,00 видеокадр)
Время предзагрузки промежутка : 500 мс.
Скриншоты
Скачать

Скачать торрент! Легион / Casshern (Казуаки Кирия / Kazuaki Kiriya) [2004, Япония, фантастика, приключения, боевик, HDRip] DVO

Как скачивать? · Что такое торрент? · Рейтинг и ограничения

Сайт не распространяет и не хранит электронные версии произведений, а лишь предоставляет доступ к создаваемому пользователями каталогу ссылок на торрент-файлы, которые содержат только списки хеш-сумм

[Профиль] [ЛС]
Показать сообщения:    
Ответить на тему

Текущее время: Сегодня 11:10

Часовой пояс: GMT + 4



Вы не можете начинать темы
Вы не можете отвечать на сообщения
Вы не можете редактировать свои сообщения
Вы не можете удалять свои сообщения
Вы не можете голосовать в опросах
Вы не можете прикреплять файлы к сообщениям
Вы не можете скачивать файлы