Могучий Пекинец / Кинг Конг в Гонконге / The Mighty Peking Man / Xing xing wang / 猩猩王 / (Менг Хуа Хо / Meng Hua Ho) [1977, Гонконг, Фантастика, Приключения, HDRip] DVO (Shangu & Ravenlark)

Ответить на тему
 
Автор Сообщение

user ®

Стаж: 11 лет

Сообщений: 15151

Пост Пост: #1 от 10-Май-2014 11:40

[Цитировать]

Могучий Пекинец / Кинг Конг в Гонконге / The Mighty Peking Man / Xing xing wang / 猩猩王 /
Страна: Гонконг
Жанр: Фантастика, Приключения
Год выпуска: 1977
Продолжительность: 01:29:42
Перевод: Любительский (двухголосый закадровый) Shangu & Ravenlark
Cубтитры: нет
Режиссер: Менг Хуа Хо / Meng Hua Ho
В ролях: Дэнни Ли
Эвелин Крафт
Ку Фенг
Сиу Ю
Лам Вэй-Тиу
Норман Чу
Нг Хонг-Санг
Кори Юэнь
Описание: Гонконгская вариация на тему "Кинг-Конга". От землетрясения пробуждается гигантская обезьяна и сокрушает какую-то деревню, после чего куда-то убегает. В джунгли Индии снаряжается экспедиция, которая помимо гигантской гориллы находит там и дикую белокожую блондинку, воспитанную этой самой гориллой. Обоих увозят в Гонконг, где злобный бизнесмен пытается эксплуатировать гориллу.
Однако, той это не совсем по нраву. Да и блондинка чувствует себя неуместной в мегаполисе...
Доп. информация: Синхронизация русской дорожки - sasha20072007 (kosmoaelita)
Сэмпл: http://yadi.sk/d/kKQEQQ9vPg3JC
Качество видео: HDRip [BDRip-720p by kosmoaelita]
Формат видео: AVI
Видео: 704x304 (2.32:1), 23.976 fps, XviD build 50 ~2099 kbps avg, 0.41 bit/pixel
Аудио: 48 kHz, AC3 Dolby Digital, 2/0 (L,R) ch, ~192 kbps
MediaInfo
Могучий Пекинец - The Mighty Peking Man [Rip by Edich2].avi
Format : AVI
Format/Info : Audio Video Interleave
File size : 1.44 GiB
Duration : 1h 29mn
Overall bit rate : 2 301 Kbps
Movie name : Могучий Пекинец - The Mighty Peking Man [Rip by Edich2]
Director : Rip by Edich2
Writing application : VirtualDubMod 1.5.10.3 | www.virtualdub-fr.org || (build 2550/release)
Comment : ***
Video
ID : 0
Format : MPEG-4 Visual
Format profile : Advanced Simple@L5
Format settings, BVOP : 2
Format settings, QPel : No
Format settings, GMC : No warppoints
Format settings, Matrix : Custom
Codec ID : XVID
Codec ID/Hint : XviD
Duration : 1h 29mn
Bit rate : 2 099 Kbps
Width : 704 pixels
Height : 304 pixels
Display aspect ratio : 2.35:1
Frame rate : 23.976 fps
Color space : YUV
Chroma subsampling : 4:2:0
Bit depth : 8 bits
Scan type : Progressive
Compression mode : Lossy
Bits/(Pixel*Frame) : 0.409
Stream size : 1.32 GiB (91%)
Writing library : XviD 1.2.1 (UTC 2008-12-04)
Audio
ID : 1
Format : AC-3
Format/Info : Audio Coding 3
Mode extension : CM (complete main)
Format settings, Endianness : Big
Codec ID : 2000
Duration : 1h 29mn
Bit rate mode : Constant
Bit rate : 192 Kbps
Channel count : 2 channels
Channel positions : Front: L R
Sampling rate : 48.0 KHz
Bit depth : 16 bits
Compression mode : Lossy
Stream size : 123 MiB (8%)
Alignment : Split accross interleaves
Interleave, duration : 42 ms (1.00 video frame)
Interleave, preload duration : 500 ms
Скриншоты
Скачать

Скачать торрент! Могучий Пекинец / Кинг Конг в Гонконге / The Mighty Peking Man / Xing xing wang / 猩猩王 / (Менг Хуа Хо / Meng Hua Ho) [1977, Гонконг, Фантастика, Приключения, HDRip] DVO (Shangu & Ravenlark)

Как скачивать? · Что такое торрент? · Рейтинг и ограничения

Сайт не распространяет и не хранит электронные версии произведений, а лишь предоставляет доступ к создаваемому пользователями каталогу ссылок на торрент-файлы, которые содержат только списки хеш-сумм

[Профиль] [ЛС]
Показать сообщения:    
Ответить на тему

Текущее время: Сегодня 22:26

Часовой пояс: GMT + 4



Вы не можете начинать темы
Вы не можете отвечать на сообщения
Вы не можете редактировать свои сообщения
Вы не можете удалять свои сообщения
Вы не можете голосовать в опросах
Вы не можете прикреплять файлы к сообщениям
Вы не можете скачивать файлы