Поездка на Феррари / Ferrari Ki Sawaari ( Раджеш Мапускар / Rajesh Mapuskar ) [2012, Индия, Комедия, мелодрама, BDRip] sub

Ответить на тему
 
Автор Сообщение

user ®

Стаж: 12 лет

Сообщений: 15092

Пост Пост: #1 от 10-Май-2014 00:30

[Цитировать]

Поездка на Феррари / Ferrari Ki Sawaari
Страна: Индия
Жанр: Комедия, мелодрама
Год выпуска: 2012
Продолжительность: 02:19:47
Перевод: Субтитры
Cубтитры: русские
Оригинальная аудиодорожка: Хинди
Режиссер: Раджеш Мапускар / Rajesh Mapuskar
В ролях: Шарман Джоши, Боман Ирани, Ритвик Сахор, Пареш Равал, Сатьядип Мишра, Видья Балан
Описание: Отец-одиночка хочет осуществить мечту своего 8-летнего сына, талантливого игрока в крикет, поехать в лагерь Лордов. Но в семье нет денег на оплату обучения за границей. Ради любимого сына честный и прямолинейный Руси решается на небольшой нечестный поступок - он на один день берет красивый красный Ferrari, принадлежащий Сачину Тендулкару. За аренду машины ему обещают заветные деньги, однако есть одна загвоздка - он не сообщает об этом его легендарному владельцу. Как только Руси оказывается за рулем Ferrari, начинается настоящее светопреставление.
Примечания: Фильм номинировался на 2 награды в 2013 году:
Лучший молодой режиссер
Лучший актер второго плана (Боман Ирани)
В фильме действительно показана машина Сачина Тендулкара!
Доп. информация:
Сэмпл / Sample
Перевод и редакция: tonyvika
Риппер: Мила (Анастасия)
Релиз-группа:
Прошу не выкладывать данный релиз на других сайтах и не использовать субтитры без разрешения переводчика.
Качество видео: BDRip
Формат видео: AVI
Видео: XviD, 720х304, 23.976 fps, 1646 kbps
Аудио: AC3, 48 kHz, 5.1 (6 ch), 448 kbps
Формат субтитров: hardsub (неотключаемые)
MediaInfo
Общее
Полное имя : F:\Movies\BWT\Vremeno\Poezdka.na.Ferari.2012.BDRip.XviD.Bollywoodtime.avi
Формат : AVI
Формат/Информация : Audio Video Interleave
Профиль формата : OpenDML
Размер файла : 2,05 Гбайт
Продолжительность : 2 ч. 19 м.
Общий поток : 2101 Кбит/сек
Программа кодирования : VirtualDubMod 1.5.10.3 | www.virtualdub-fr.org || (build 2550/release)
Библиотека кодирования : VirtualDubMod build 2550/release
Видео
Идентификатор : 0
Формат : MPEG-4 Visual
Профиль формата : Advanced Simple@L5
Параметр BVOP формата : 2
Параметр QPel формата : Нет
Параметр GMC формата : Без точки перехода
Параметр матрицы формата : Default (MPEG)
Идентификатор кодека : XVID
Идентификатор кодека/Подсказка : XviD
Продолжительность : 2 ч. 19 м.
Битрейт : 1641 Кбит/сек
Ширина : 720 пикселей
Высота : 304 пикселя
Соотношение сторон : 2,35:1
Частота кадров : 23,976 кадра/сек
Цветовое пространство : YUV
Субдискретизация насыщенности : 4:2:0
Битовая глубина : 8 бит
Тип развёртки : Прогрессивная
Метод сжатия : С потерями
Бит/(Пиксели*Кадры) : 0.313
Размер потока : 1,60 Гбайт (78%)
Библиотека кодирования : XviD 63
Аудио
Идентификатор : 1
Формат : AC-3
Формат/Информация : Audio Coding 3
Расширение режима : CM (complete main)
Параметр Endianness формата : Big
Идентификатор кодека : 2000
Продолжительность : 2 ч. 19 м.
Вид битрейта : Постоянный
Битрейт : 448 Кбит/сек
Каналы : 6 каналов
Расположение каналов : Front: L C R, Side: L R, LFE
Частота : 48,0 КГц
Битовая глубина : 16 бит
Метод сжатия : С потерями
Размер потока : 448 Мбайт (21%)
Выравнивание : Разделение по промежуткам
Продолжительность промежутка : 42 мс. (1,00 видеокадр)
Время предзагрузки промежутка : 500 мс.
Скриншот c названием фильма Скриншоты
Скачать

Скачать торрент! Поездка на Феррари / Ferrari Ki Sawaari ( Раджеш Мапускар / Rajesh Mapuskar ) [2012, Индия, Комедия, мелодрама, BDRip] sub

Как скачивать? · Что такое торрент? · Рейтинг и ограничения

Сайт не распространяет и не хранит электронные версии произведений, а лишь предоставляет доступ к создаваемому пользователями каталогу ссылок на торрент-файлы, которые содержат только списки хеш-сумм

[Профиль] [ЛС]
Показать сообщения:    
Ответить на тему

Текущее время: Сегодня 16:31

Часовой пояс: GMT + 4



Вы не можете начинать темы
Вы не можете отвечать на сообщения
Вы не можете редактировать свои сообщения
Вы не можете удалять свои сообщения
Вы не можете голосовать в опросах
Вы не можете прикреплять файлы к сообщениям
Вы не можете скачивать файлы