Алиса в стране чудес / Alice in Wonderland (Тим Бёртон / Tim Burton) [2010, США, фэнтези, приключения, семейный, BDRip 1080p] Dub + Ukr Dub + Original Eng + Sub Rus, Ukr, Eng

Ответить на тему
 
Автор Сообщение

user ®

Стаж: 7 лет 7 месяцев

Сообщений: 20008

Пост Пост: #1 от 10-Май-2014 00:30

[Цитировать]

Алиса в стране чудес / Alice in Wonderland- Страна: США
Студия: 01:48:34
Жанр: фэнтези, приключения, семейный
Год выпуска: 2010
Продолжительность: 01:48:34
Перевод:

  • Профессиональный (дублированный) Blu-ray
    Cубтитры: русские, украинские, английские
    Оригинальная аудиодорожка: английский-Режиссер: Тим Бёртон / Tim Burton
    В ролях: Миа Васиковска, Джонни Депп, Хелена Бонем Картер, Энн Хэтэуэй, Криспин Гловер, Мэтт Лукас, Стивен Фрай, Майкл Шин, Алан Рикман, Барбара Уиндсор
    Описание: Жизнь 19-летней Алисы Кингсли принимает неожиданный оборот. На викторианской вечеринке, устроенной в её честь, Алисе делает предложение Хэмиш, богатый, но глупый сын лорда и леди Эскот. Не дав ответа, девушка убегает и идёт за кроликом, замеченным ею на лужайке. Кролик как кролик, вот только он одет в камзол и всё время смотрит на карманные часы. Алиса гонится за Белым Кроликом через весь луг и видит, как он исчезает в кроличьей норе. Затем, неожиданно, Алиса падает туда сама, летит вниз по странному, сказочному туннелю и приземляется в круглом зале со множеством дверей. Выпив из бутылки с надписью «ВЫПЕЙ МЕНЯ», она уменьшается в размерах, а откусив от пирожного с надписью «СЪЕШЬ МЕНЯ» — вырастает. Наконец, миновав череду злоключений, Алиса попадает через одну из дверей в чудесный фантастический мир, который его обитатели называют Подземной страной. Там её ждёт целый парад колоритных персонажей: хвастливая Соня, сумасшедший Шляпник, глумливый Чеширский Кот, накурившаяся кальяном гусеница по имени Абессалом, жутковатая Белая Королева и её злобная сестра, Королева Червей, вздорная и раздражительная правительница Подземной страны.-Качество: BDRip 1080p | Контейнер: MKV | Рип: EbP
    Видео: 1920x1080 (16:9), 23.976 fps, x264@L4.1 ~14000 kbps avg
    Аудио 1: Russian 48 kHz, AC3, 3/2 (L,C,R,l,r) + LFE ch, 640.00 kbps avg | Blu-ray
    Аудио 2: Ukrainian 48 kHz, AC3, 3/2 (L,C,R,l,r) + LFE ch, 640.00 kbps avg | Blu-ray
    Аудио 3: English 48 kHz, DTS, 3/2 (L,C,R,l,r) + LFE ch, 1509.00 kbps avg | Original

    Сэмпл
Скриншоты Медиаинфо
Общее
Формат : Matroska
Версия формата : Version 4 / Version 2
Размер файла : 12,7 Гбайт
Продолжительность : 1 ч. 48 м.
Общий поток : 16,8 Мбит/сек
Название фильма : Alice in Wonderland 2010
Дата кодирования : UTC 2014-05-08 19:20:21
Программа кодирования : mkvmerge v6.1.0 ('Old Devil') built on Mar 4 2013 09:10:42
Библиотека кодирования : libebml v1.3.0 + libmatroska v1.4.0
Видео
Идентификатор : 1
Формат : AVC
Формат/Информация : Advanced Video Codec
Профиль формата : High@L4.1
Параметр CABAC формата : Да
Параметр ReFrames формата : 4 кадра
Идентификатор кодека : V_MPEG4/ISO/AVC
Продолжительность : 1 ч. 48 м.
Битрейт : 14,0 Мбит/сек
Ширина : 1920 пикселей
Высота : 1080 пикселей
Соотношение сторон : 16:9
Режим частоты кадров : Постоянный
Частота кадров : 23,976 кадра/сек
Цветовое пространство : YUV
Субдискретизация насыщенности : 4:2:0
Битовая глубина : 8 бит
Тип развёртки : Прогрессивная
Бит/(Пиксели*Кадры) : 0.282
Размер потока : 10,4 Гбайт (81%)
Заголовок : BDRip 1080p Release for HDCLUB
Библиотека кодирования : x264 core 94 r1583 7608d73
Настройки программы : cabac=1 / ref=4 / deblock=1:-3:-3 / analyse=0x3:0x113 / me=tesa / subme=10 / psy=1 / psy_rd=0.95:0.00 / mixed_ref=1 / me_range=16 / chroma_me=1 / trellis=2 / 8x8dct=1 / cqm=0 / deadzone=21,11 / fast_pskip=0 / chroma_qp_offset=-2 / threads=12 / sliced_threads=0 / nr=0 / decimate=0 / interlaced=0 / constrained_intra=0 / bframes=7 / b_pyramid=2 / b_adapt=2 / b_bias=0 / direct=3 / weightb=1 / weightp=2 / keyint=250 / keyint_min=25 / scenecut=40 / intra_refresh=0 / rc=2pass / mbtree=0 / bitrate=14000 / ratetol=1.0 / qcomp=0.60 / qpmin=10 / qpmax=51 / qpstep=4 / cplxblur=20.0 / qblur=0.5 / ip_ratio=1.40 / pb_ratio=1.30 / aq=1:0.75
Язык : English
Default : Да
Forced : Нет
Аудио #1
Идентификатор : 2
Формат : AC-3
Формат/Информация : Audio Coding 3
Расширение режима : CM (complete main)
Параметр Endianness формата : Big
Идентификатор кодека : A_AC3
Продолжительность : 1 ч. 48 м.
Вид битрейта : Постоянный
Битрейт : 640 Кбит/сек
Каналы : 6 каналов
Расположение каналов : Front: L C R, Side: L R, LFE
Частота : 48,0 КГц
Битовая глубина : 16 бит
Метод сжатия : С потерями
Размер потока : 497 Мбайт (4%)
Заголовок : Blu-ray
Язык : Russian
Default : Да
Forced : Нет
Аудио #2
Идентификатор : 3
Формат : AC-3
Формат/Информация : Audio Coding 3
Расширение режима : CM (complete main)
Параметр Endianness формата : Big
Идентификатор кодека : A_AC3
Продолжительность : 1 ч. 48 м.
Вид битрейта : Постоянный
Битрейт : 640 Кбит/сек
Каналы : 6 каналов
Расположение каналов : Front: L C R, Side: L R, LFE
Частота : 48,0 КГц
Битовая глубина : 16 бит
Метод сжатия : С потерями
Размер потока : 497 Мбайт (4%)
Заголовок : Blu-ray
Язык : Ukrainian
Default : Нет
Forced : Нет
Аудио #3
Идентификатор : 4
Формат : DTS
Формат/Информация : Digital Theater Systems
Профиль формата : ES
Режим : 16
Параметр Endianness формата : Big
Идентификатор кодека : A_DTS
Продолжительность : 1 ч. 48 м.
Вид битрейта : Постоянный
Битрейт : 1509 Кбит/сек
Каналы : 6 каналов
Расположение каналов : Front: L C R, Side: L R, LFE
Частота : 48,0 КГц
Битовая глубина : 24 бит
Метод сжатия : С потерями
Размер потока : 1,14 Гбайт (9%)
Заголовок : Original
Язык : English
Default : Нет
Forced : Нет
Текст #1
Идентификатор : 5
Формат : UTF-8
Идентификатор кодека : S_TEXT/UTF8
Идентификатор кодека/Информация : UTF-8 Plain Text
Заголовок : Forced
Язык : Russian
Default : Да
Forced : Нет
Текст #2
Идентификатор : 6
Формат : UTF-8
Идентификатор кодека : S_TEXT/UTF8
Идентификатор кодека/Информация : UTF-8 Plain Text
Заголовок : Full
Язык : Russian
Default : Нет
Forced : Нет
Текст #3
Идентификатор : 7
Формат : UTF-8
Идентификатор кодека : S_TEXT/UTF8
Идентификатор кодека/Информация : UTF-8 Plain Text
Заголовок : Full
Язык : Ukrainian
Default : Нет
Forced : Нет
Текст #4
Идентификатор : 8
Формат : UTF-8
Идентификатор кодека : S_TEXT/UTF8
Идентификатор кодека/Информация : UTF-8 Plain Text
Заголовок : Full
Язык : English
Default : Нет
Forced : Нет
Меню
00:00:00.000 : :1. Dreamers
00:04:24.890 : :2. Miss Kingsleigh Is Distracted
00:10:36.886 : :3. Down the Rabbit Hole
00:18:13.509 : :4. The Wrong Alice
00:24:44.316 : :5. The Red Queen
00:28:41.345 : :6. Cheshire, The Hare and the Hatter
00:36:51.126 : :7. "I Make The Path"
00:46:15.731 : :8. Um from Umbradge
00:52:44.787 : :9. Freeing the Vorpal Sword
01:04:05.050 : :10. Escape to Marmoreal
01:10:02.198 : :11. Mutiny
01:15:36.490 : :12. The White Queen's Champion
01:23:39.264 : :13. Frabjous Day
01:34:12.689 : :14. Returning Home
01:36:58.354 : :15. Alice's Decision
01:40:12.131 : :16. End Credits
Скачать

Скачать торрент!

Как скачивать? · Что такое торрент? · Рейтинг и ограничения

Сайт не распространяет и не хранит электронные версии произведений, а лишь предоставляет доступ к создаваемому пользователями каталогу ссылок на торрент-файлы, которые содержат только списки хеш-сумм

[Профиль] [ЛС]
Показать сообщения:    
Ответить на тему

Текущее время: Сегодня 22:32

Часовой пояс: GMT + 4



Вы не можете начинать темы
Вы не можете отвечать на сообщения
Вы не можете редактировать свои сообщения
Вы не можете удалять свои сообщения
Вы не можете голосовать в опросах
Вы не можете прикреплять файлы к сообщениям
Вы не можете скачивать файлы