Погибшие жестокой смертью 2 / Tai Hong Tai Hien 2 / Still 2 (Пой Арнон, Ачира Ноктхет / Poj Arnon, Achira Nokthet) [2009, Таиланд, Ужасы, триллер, DVDRip] DVO (DeadSno & den904)

Ответить на тему
 
Автор Сообщение

user ®

Стаж: 13 лет

Сообщений: 15071

Пост Пост: #1 от 09-Май-2014 21:20

[Цитировать]

Погибшие жестокой смертью 2 / Tai Hong Tai Hien 2 / Still 2
Страна: Таиланд
Жанр: Ужасы, триллер
Год выпуска: 2014
Продолжительность: 01:47:28
Перевод: Любительский (двухголосый закадровый) DeadSno & den904
Cубтитры: нет
Оригинальная аудиодорожка: нет
Режиссер: Пой Арнон, Ачира Ноктхет / Poj Arnon, Achira Nokthet
В ролях: Пичанок Льювизетпайбун, Питчайя Нитипайсанкул, Пхаранью Роджанавутхихам, Падунг Сонгсанг, Чарли Трайраттана
Описание: Они избежали одной из самых мучительных смертей, сгореть заживо, но призраки преследуют их, не оставляя шанса на выживание. Фильм состоит из четырёх историй, основанных на реальных событиях.
Доп. информация:

Сэмпл: http://multi-up.com/972169
Качество видео: DVDRip
Формат видео: AVI
Видео: MPEG-4 720x304 23.976fps 1 039 Kbps
Аудио: Dolby AC3 48000Hz 6ch 384kbps
Аудио 2: Dolby AC3 48000Hz 6ch 384kbps
MediaInfo
General
Complete name : D:\Still.2.2014.DVDRip.avi
Format : AVI
Format/Info : Audio Video Interleave
Format profile : OpenDML
File size : 1.37 GiB
Duration : 1h 47mn
Overall bit rate : 1 826 Kbps
Writing application : Lavf51.12.1
Video
ID : 0
Format : MPEG-4 Visual
Format profile : Simple@L1
Format settings, BVOP : No
Format settings, QPel : No
Format settings, GMC : No warppoints
Format settings, Matrix : Default (H.263)
Codec ID : FMP4
Duration : 1h 47mn
Bit rate : 1 039 Kbps
Width : 720 pixels
Height : 304 pixels
Display aspect ratio : 2.35:1
Frame rate : 23.976 fps
Color space : YUV
Chroma subsampling : 4:2:0
Bit depth : 8 bits
Scan type : Progressive
Compression mode : Lossy
Bits/(Pixel*Frame) : 0.198
Stream size : 799 MiB (57%)
Writing library : Lavc51.40.4
Audio #1
ID : 1
Format : AC-3
Format/Info : Audio Coding 3
Mode extension : CM (complete main)
Format settings, Endianness : Big
Codec ID : 2000
Duration : 1h 47mn
Bit rate mode : Constant
Bit rate : 384 Kbps
Channel count : 6 channels
Channel positions : Front: L C R, Side: L R, LFE
Sampling rate : 48.0 KHz
Bit depth : 16 bits
Compression mode : Lossy
Stream size : 295 MiB (21%)
Alignment : Aligned on interleaves
Interleave, duration : 32 ms (0.77 video frame)
Interleave, preload duration : 32 ms
Audio #2
ID : 2
Format : AC-3
Format/Info : Audio Coding 3
Mode extension : CM (complete main)
Format settings, Endianness : Big
Codec ID : 2000
Duration : 1h 47mn
Bit rate mode : Constant
Bit rate : 384 Kbps
Channel count : 6 channels
Channel positions : Front: L C R, Side: L R, LFE
Sampling rate : 48.0 KHz
Bit depth : 16 bits
Compression mode : Lossy
Stream size : 295 MiB (21%)
Alignment : Aligned on interleaves
Interleave, duration : 32 ms (0.77 video frame)
Interleave, preload duration : 32 ms
Скриншот c названием фильма Скриншоты
Скачать

Скачать торрент! Погибшие жестокой смертью 2 / Tai Hong Tai Hien 2 / Still 2 (Пой Арнон, Ачира Ноктхет / Poj Arnon, Achira Nokthet) [2009, Таиланд, Ужасы, триллер, DVDRip] DVO (DeadSno & den904)

Как скачивать? · Что такое торрент? · Рейтинг и ограничения

Сайт не распространяет и не хранит электронные версии произведений, а лишь предоставляет доступ к создаваемому пользователями каталогу ссылок на торрент-файлы, которые содержат только списки хеш-сумм

[Профиль] [ЛС]
Показать сообщения:    
Ответить на тему

Текущее время: Сегодня 18:27

Часовой пояс: GMT + 4



Вы не можете начинать темы
Вы не можете отвечать на сообщения
Вы не можете редактировать свои сообщения
Вы не можете удалять свои сообщения
Вы не можете голосовать в опросах
Вы не можете прикреплять файлы к сообщениям
Вы не можете скачивать файлы