Игра в кости / Thegidi ( П. Рамеш / P. Ramesh ) [2014, Индия, Детективный триллер, DVDRip] Sub Rus

Ответить на тему
 
Автор Сообщение

user ®

Стаж: 12 лет

Сообщений: 15092

Пост Пост: #1 от 09-Май-2014 21:20

[Цитировать]

Игра в кости / Thegidi
Страна: Индия
Жанр: Детективный триллер
Год выпуска: 2014
Продолжительность: 01:55:50
Перевод: Субтитры
Cубтитры: русские
Оригинальная аудиодорожка: Тамили
Режиссер: П. Рамеш / P. Ramesh
В ролях: Ашок Селван, Джанани Айер, Каали, Джайпракаш Редди, Прадип Наир, Андреа Джеремия,
Описание: Ветри (Ашок Селван) – выпускник факультета криминалистики. Его профессор советует ему заняться детективной деятельностью, поскольку Ветри имеет талант всё замечать. Устроившись в детективное агенство, он с большим рвением выполняет свою работу. Одним из объектов его наблюдений становится девушка – Мадху (Джанани Айер). Случайно, Ветри узнаёт, что двое из его “подопечных” погибли в результате несчастного случая. Начав распутывать этот клубок, Ветри всё больше узнаёт, кому и почему выпали те или иные “кости”…
Комментарии:
Танджавур или Танджур — административный центр одноимённого округа в индийском штате Тамилнад, в устье реки Кавери — одной из рисовых житниц Южной Азии. Население — 216 тыс. жит. (2001).Танджавуру принадлежит видная роль в истории Южной Индии. С IX по XI вв. он служил столицей протяжённой державы Чола. О той давней эпохе напоминает 66-метровый гранитный храм Брахадисвара — один из памятников Всемирного наследия ЮНЕСКО. Из других памятников старины примечательны виджаянагарская крепость и резиденция маратхского раджи.В современном Танджавуре развиты ковроткачество и ювелирное дело. С каждым годом растёт туризм.
Тирутупайпунди – город в районе Тируварур, штат Тамил Наду, в 330 км. от Ченнаи. Население около 24 500 человек.
Пудукоттаи – район в штате Тамил Наду. Граничит на северо-востоке и востоке с районом Танджур(Танджавур).
Килпаук – полужилой район в городе Ченнаи, расположенный в 6 км. от центра города.
Отдел исследований и анализа (хинди रिसर्च एंड एनालिसिस विंग, англ. Research and Analysis Wing, RAW или R&AW) -внешняя разведка Индии, созданная как самостоятельная организация в 1968. Основными функциями RAW являются внешняя разведка, борьба с терроризмом и тайные операции. Кроме того, она несет ответственность за получение и анализ информации об иностранных правительствах, корпорациях, а также обеспечение безопасности ядерной программы Индии. Работает под контролем премьер-министра Индии.
Доп. информация:
Сэмпл / Sample
Перевод и редакция:net
Риппер:randy23

Релиз-группа:
Субтитры не предназначены для коммерческого использования и продажи через интернет-магазины, а также без разрешения переводчика. При копировании – соблюдайте оформление до буквы.
Качество видео: DVDRip
Формат видео: AVI
Видео: XviD, 720х304, 25 fps, 1132 kbps
Аудио: AC3, 48 kHz, 5.1 (6 ch), 448 kbps
Формат субтитров: hardsub (неотключаемые)
MediaInfo
Общее
Полное имя : F:\Movies\BWT\Vremeno\Igra.v.kosti.2014.DVDRip.XviD.BwTorrents.avi
Формат : AVI
Формат/Информация : Audio Video Interleave
Размер файла : 1,29 Гбайт
Продолжительность : 1 ч. 55 м.
Общий поток : 1590 Кбит/сек
Программа кодирования : VirtualDubMod 1.5.10.3 | www.virtualdub-fr.org || (build 2550/release)
Библиотека кодирования : VirtualDubMod build 2550/release
Видео
Идентификатор : 0
Формат : MPEG-4 Visual
Профиль формата : Advanced Simple@L5
Параметр BVOP формата : 2
Параметр QPel формата : Нет
Параметр GMC формата : Без точки перехода
Параметр матрицы формата : Default (MPEG)
Идентификатор кодека : XVID
Идентификатор кодека/Подсказка : XviD
Продолжительность : 1 ч. 55 м.
Битрейт : 1132 Кбит/сек
Ширина : 720 пикселей
Высота : 304 пикселя
Соотношение сторон : 2,35:1
Частота кадров : 25,000 кадров/сек
Цветовое пространство : YUV
Субдискретизация насыщенности : 4:2:0
Битовая глубина : 8 бит
Тип развёртки : Прогрессивная
Метод сжатия : С потерями
Бит/(Пиксели*Кадры) : 0.207
Размер потока : 938 Мбайт (71%)
Библиотека кодирования : XviD 63
Аудио
Идентификатор : 1
Формат : AC-3
Формат/Информация : Audio Coding 3
Расширение режима : CM (complete main)
Параметр Endianness формата : Big
Идентификатор кодека : 2000
Продолжительность : 1 ч. 55 м.
Вид битрейта : Постоянный
Битрейт : 448 Кбит/сек
Каналы : 6 каналов
Расположение каналов : Front: L C R, Side: L R, LFE
Частота : 48,0 КГц
Битовая глубина : 16 бит
Метод сжатия : С потерями
Размер потока : 371 Мбайт (28%)
Выравнивание : Разделение по промежуткам
Продолжительность промежутка : 40 мс. (1,00 видеокадр)
Время предзагрузки промежутка : 500 мс.
Скриншот c названием фильма Скриншоты
Скачать

Скачать торрент! Игра в кости / Thegidi ( П. Рамеш / P. Ramesh ) [2014, Индия, Детективный триллер, DVDRip] Sub Rus

Как скачивать? · Что такое торрент? · Рейтинг и ограничения

Сайт не распространяет и не хранит электронные версии произведений, а лишь предоставляет доступ к создаваемому пользователями каталогу ссылок на торрент-файлы, которые содержат только списки хеш-сумм

[Профиль] [ЛС]
Показать сообщения:    
Ответить на тему

Текущее время: Сегодня 11:47

Часовой пояс: GMT + 4



Вы не можете начинать темы
Вы не можете отвечать на сообщения
Вы не можете редактировать свои сообщения
Вы не можете удалять свои сообщения
Вы не можете голосовать в опросах
Вы не можете прикреплять файлы к сообщениям
Вы не можете скачивать файлы