Незаметное / Shady / Kashikoi inu wa hoezuni warau (Рёхей Ватанабе / Ryohei Watanabe) [2012, Япония, Триллер, драма, DVDRip] VO D.I.M.

Ответить на тему
 
Автор Сообщение

user ®

Стаж: 13 лет

Сообщений: 15071

Пост Пост: #1 от 09-Май-2014 16:00

[Цитировать]

Незаметное / Shady / Kashikoi inu wa hoezuni warau
Страна: Япония
Жанр: Триллер, драма
Год выпуска: 2012
Продолжительность: 1:33:59
Перевод: Одноголосый закадровый D.I.M.
Cубтитры: нет
Режиссер: Рёхей Ватанабе / Ryohei Watanabe
В ролях: Хироки Хорикава / Hiroki Horikawa
Гота Исида / Gota Ishida
Морико / Moriko
Дзудзо Какеи / Juzo Kakei
Исао Накадзава / Isao Nakazawa
Аюми Ниго / Ayumi Nigo
Описание: Миса Кумада, по кличке "Пух", т.к. её фамилия означает "медведь",
незаметная и не очень красивая ученица старшей школы.
Над ней издеваются так же, как и над Идзуми Киёси,
хотя та наоборот очень симпатичная.
И естественно эти две родственные души подружились.
Но как известно, никто никогда до конца не знает другого человека...
Это девяносто второй фильм с моим переводом и озвучкой, выложенный здесь.
Любители душевного кино могут найти для себя что-то интересное.
Сэмпл: http://multi-up.com/972687
Качество видео: DVDRip
Формат видео: AVI
Видео: 720*416(16:9), 23,976 fps, MPEG-4 Visual (XviD) ~ 906 kbps avg, 0.126 bit/pixel
Аудио: MPEG Audio Layer 3, 48000Hz, stereo, 128kbps
MediaInfo
Общее
Полное имя : E:\TORENT\РАЗДАЧИ (РИПЫ)\SHADY.avi
Формат : AVI
Формат/Информация : Audio Video Interleave
Размер файла : 701 Мбайт
Продолжительность : 1 ч. 33 м.
Общий поток : 1043 Кбит/сек
Программа кодирования : VirtualDubModRus 1.5.10.2 (build 2542/release)
Библиотека кодирования : VirtualDubMod build 2542/release
Видео
Идентификатор : 0
Формат : MPEG-4 Visual
Профиль формата : Advanced Simple@L5
Параметр BVOP формата : 1
Параметр QPel формата : Нет
Параметр GMC формата : Без точки перехода
Параметр матрицы формата : Выборочная
Идентификатор кодека : XVID
Идентификатор кодека/Подсказка : XviD
Продолжительность : 1 ч. 33 м.
Битрейт : 906 Кбит/сек
Ширина : 720 пикс.
Высота : 416 пикс.
Соотношение сторон : 16:9
Частота кадров : 23,976 кадр/сек
Цветовое пространство : YUV
Подвыборка цветности : 4:2:0
Битовая глубина : 8 бит
Тип развёртки : Прогрессивная
Метод сжатия : С потерями
Бит/(Пиксели*Кадры) : 0.126
Размер потока : 609 Мбайт (87%)
Библиотека кодирования : XviD 63
Аудио
Идентификатор : 1
Формат : MPEG Audio
Версия формата : Version 1
Профиль формата : Layer 3
Режим : Joint stereo
Расширение режима : MS Stereo
Идентификатор кодека : 55
Идентификатор кодека/Подсказка : MP3
Продолжительность : 1 ч. 33 м.
Вид битрейта : Постоянный
Битрейт : 128 Кбит/сек
Канал(ы) : 2 канала(ов)
Частота : 48,0 КГц
Метод сжатия : С потерями
Размер потока : 86,1 Мбайт (12%)
Выравнивание : Соединение по промежуткам
Продолжительность промежутка : 42 мс. (1,00 видеокадр)
Время предзагрузки промежутка : 504 ms
Библиотека кодирования : LAME3.98.2
Язык : Russian
Скриншот c названием фильма Скриншоты
Скачать

Скачать торрент! Незаметное / Shady / Kashikoi inu wa hoezuni warau (Рёхей Ватанабе / Ryohei Watanabe) [2012, Япония, Триллер, драма, DVDRip] VO D.I.M.

Как скачивать? · Что такое торрент? · Рейтинг и ограничения

Сайт не распространяет и не хранит электронные версии произведений, а лишь предоставляет доступ к создаваемому пользователями каталогу ссылок на торрент-файлы, которые содержат только списки хеш-сумм

[Профиль] [ЛС]
Показать сообщения:    
Ответить на тему

Текущее время: Сегодня 18:19

Часовой пояс: GMT + 4



Вы не можете начинать темы
Вы не можете отвечать на сообщения
Вы не можете редактировать свои сообщения
Вы не можете удалять свои сообщения
Вы не можете голосовать в опросах
Вы не можете прикреплять файлы к сообщениям
Вы не можете скачивать файлы