My Scene: Звезды Голливуда / My Scene Goes Hollywood: The Movie (Эрик Фогель / Eric Fogel) [2005, мультфильм, DVDRip] Dub

Ответить на тему
 
Автор Сообщение

user ®

Стаж: 13 лет

Сообщений: 15041

Пост Пост: #1 от 08-Май-2014 21:45

[Цитировать]

My Scene: Звезды Голливуда / My Scene Goes Hollywood: The Movie«Свет, камера, мода... Это её первый фильм!»- Страна: США
Жанр: мультфильм
Год выпуска: 2005
Продолжительность: 01:15:51
Перевод: Профессиональный (полное дублирование)
Русские субтитры: Нет-Режиссер: Эрик Фогель / Eric Fogel-Роли озвучивали:этлин Барр (Madison, озвучка), Келли Шеридан (Barbie, озвучка), Николь Боума (Chelsea, озвучка), Теган Мосс (Nolee, озвучка), Меган Блэк (Delancey, озвучка), Сэффрон Хендерсон (Audra, озвучка), Терри Классен (Jim, озвучка), Алессандро Джулиани (River, озвучка), Шейн Майер (Ellis, озвучка), Кирби Морроу (Hudson, озвучка), Марк Хилдрет (Sutton, озвучка), Сэм Винсент (Ryan, озвучка)-Описание: Нет девушки, чтo не мeчтaет быть кинозвездой, и знаменитaя кукла Барби и ee верныe подружки - Мэдисон, Челси, Ноли и Дилэнси - не исключениe. Однажды им выпaдает шанс сыграть маленькие роли в голливудском фильме. Показаться на экране в шикарных нарядах, блеснуть идеальным макияжем и продемонстрировать моднейшие прически - что может быть лучше!? Ну, кое-что может. Например, когда Мэдисон вдруг приглашают на большую роль в паре с популярнейшим молодым актером! Вот это удача! Однако не вскружит ли голову Мэдисон ее нежданная слава? Не забудет ли она подруг ради волшебного мира кино?-Рейтинг:
-Мировая премьера: 30 августа 2005
Релиз на DVD: 8 июня 2010, «Уолт Дисней Компани СНГ»--Качество: DVDRip
Формат: AVI
Видео: 640x384 (1.67:1), 25 fps, XviD build 65 ~1235 kbps avg, 0.20 bit/pixel
Аудио: 48 kHz, MPEG Layer 3, 2 ch, ~128.00 kbps avg
Субтитры: Отсутствуют
-MI
Format : AVIFormat/Info : Audio Video InterleaveFile size : 745 MiBDuration : 1h 15mnOverall bit rate : 1 374 KbpsWriting application : VirtualDubMod 1.5.10.3 | www.virtualdub-fr.org || (build 2550/release)Writing library : VirtualDubMod build 2550/release
VideoID : 0Format : MPEG-4 VisualFormat profile : Advanced Simple@L5Format settings, BVOP : 2Format settings, QPel : NoFormat settings, GMC : No warppointsFormat settings, Matrix : CustomCodec ID : XVIDCodec ID/Hint : XviDDuration : 1h 15mnBit rate : 1 236 KbpsWidth : 640 pixelsHeight : 384 pixelsDisplay aspect ratio : 1.667Frame rate : 25.000 fpsColor space : YUVChroma subsampling : 4:2:0Bit depth : 8 bitsScan type : ProgressiveCompression mode : LossyBits/(Pixel*Frame) : 0.201Stream size : 670 MiB (90%)Writing library : XviD 65
AudioID : 1Format : MPEG AudioFormat version : Version 1Format profile : Layer 3Codec ID : 55Codec ID/Hint : MP3Duration : 1h 15mnBit rate mode : ConstantBit rate : 128 KbpsChannel(s) : 2 channelsSampling rate : 48.0 KHzCompression mode : LossyStream size : 69.4 MiB (9%)Alignment : Aligned on interleavesInterleave, duration : 40 ms (1.00 video frame)Interleave, preload duration : 504 msWriting library : LAME3.99rEncoding settings : -m s -V 4 -q 2 -lowpass 17 -b 128
Скачать

Скачать торрент! My Scene: Звезды Голливуда / My Scene Goes Hollywood: The Movie (Эрик Фогель / Eric Fogel) [2005, мультфильм, DVDRip] Dub

Как скачивать? · Что такое торрент? · Рейтинг и ограничения

Сайт не распространяет и не хранит электронные версии произведений, а лишь предоставляет доступ к создаваемому пользователями каталогу ссылок на торрент-файлы, которые содержат только списки хеш-сумм

[Профиль] [ЛС]
Показать сообщения:    
Ответить на тему

Текущее время: Сегодня 03:54

Часовой пояс: GMT + 4



Вы не можете начинать темы
Вы не можете отвечать на сообщения
Вы не можете редактировать свои сообщения
Вы не можете удалять свои сообщения
Вы не можете голосовать в опросах
Вы не можете прикреплять файлы к сообщениям
Вы не можете скачивать файлы